<?xml version="1.0" standalone="no"?>
<!DOCTYPE svg PUBLIC "-//W3C//DTD SVG 1.1//EN" "http://www.w3.org/Graphics/SVG/1.1/DTD/svg11.dtd" >
<svg xmlns="http://www.w3.org/2000/svg" xmlns:xlink="http://www.w3.org/1999/xlink" version="1.1">
<metadata>
Created by FontForge 20201107 at Wed Nov  5 21:33:00 2014
 By 
SIL Open Font License, 1.1
</metadata>
<defs>
<font id="OpenDyslexicThree-Bold" horiz-adv-x="439" >
  <font-face 
    font-family="OpenDyslexic3"
    font-weight="700"
    font-stretch="normal"
    units-per-em="1000"
    panose-1="0 0 0 0 0 0 0 0 0 0"
    ascent="800"
    descent="-200"
    x-height="547"
    cap-height="870"
    bbox="-96 -578.19 1451 1345"
    underline-thickness="50"
    underline-position="-213"
    unicode-range="U+000D-FB02"
  />
<missing-glyph horiz-adv-x="626" 
d="M88 -177q-30 0 -30 29v902q0 29 30 29h450q30 0 30 -29v-902q0 -29 -30 -29h-450zM473 690h-319v-679h319v679z" />
    <glyph glyph-name=".notdef" horiz-adv-x="626" 
d="M88 -177q-30 0 -30 29v902q0 29 30 29h450q30 0 30 -29v-902q0 -29 -30 -29h-450zM473 690h-319v-679h319v679z" />
    <glyph glyph-name=".null" horiz-adv-x="0" 
 />
    <glyph glyph-name="nonmarkingreturn" unicode="&#xd;" horiz-adv-x="0" 
 />
    <glyph glyph-name="NULL" horiz-adv-x="146" 
 />
    <glyph glyph-name="NULL" horiz-adv-x="146" 
 />
    <glyph glyph-name="space" unicode=" " horiz-adv-x="850" 
 />
    <glyph glyph-name="exclam" unicode="!" horiz-adv-x="295" 
d="M96 267q-19 0 -29 11.5t-9 28.5l18 368l8 307q1 20 12.5 27t24.5 10l46 10q22 4 32.5 -9t10.5 -29l4 -316l23 -368q1 -17 -9 -28.5t-29 -11.5h-103zM104 0q-22 0 -33.5 12.5t-9.5 32.5l7 89q2 19 13.5 30t31.5 11h69q22 0 32.5 -11.5t12.5 -29.5l8 -89q2 -20 -10.5 -32.5
t-32.5 -12.5h-88z" />
    <glyph glyph-name="quotedbl" unicode="&#x22;" horiz-adv-x="459" 
d="M302 743q-18 0 -28 10t-10 26l3 216q0 17 11 26t29 9h49q38 0 40 -35l5 -216q1 -17 -10.5 -26.5t-28.5 -9.5h-60zM97 743q-17 0 -28.5 9.5t-10.5 26.5l5 216q2 35 40 35h48q18 0 29 -9t11 -26l4 -216q0 -16 -10 -26t-29 -10h-59z" />
    <glyph glyph-name="numbersign" unicode="#" horiz-adv-x="799" 
d="M603 165q-8 0 -10 -2.5t-2 -3.5l1 -124q0 -20 -15 -27.5t-28 -7.5h-44q-23 0 -29.5 13t-6.5 27l1 114q0 5 -0.5 8t-5.5 3h-109h-16t-6 -6l1 -124q0 -20 -14 -27.5t-28 -7.5h-44q-23 0 -29.5 13t-6.5 27l1 114q0 5 -0.5 8t-5.5 3h-109q-18 0 -29 10t-11 28v53q0 19 11 29
t29 10h104q8 0 9.5 2t1.5 4l1 91q0 5 -0.5 8t-5.5 3h-111q-17 0 -28 10t-11 28v45q0 17 10.5 27t28.5 10h104q9 0 11 2.5t2 3.5v154q0 20 14 27.5t28 7.5h39q23 0 29.5 -13.5t6.5 -27.5l2 -142q0 -5 0.5 -8.5t5.5 -3.5h119q8 0 10 2.5t2 3.5v154q0 20 14.5 27.5t27.5 7.5h41
q23 0 29.5 -13.5t6.5 -27.5l3 -142q0 -5 0.5 -8.5t5.5 -3.5h104q18 0 28.5 -10t10.5 -27v-45q0 -17 -11 -27.5t-28 -10.5h-99q-8 0 -10 -2t-2 -4v-90q0 -5 0.5 -8t5.5 -3l105 -1q39 0 39 -39v-53q0 -17 -10.5 -27.5t-28.5 -10.5h-99zM466 386v6.5t-5 2.5h-113q-8 0 -10 -2
q-1 -1 -1 -2v-86v-7t5 -3h113q3 0 9 2l2 2v87z" />
    <glyph glyph-name="dollar" unicode="$" horiz-adv-x="705" 
d="M420 26q-15 -2 -14 -16l6 -111q2 -23 -10.5 -34t-33.5 -11h-43q-22 0 -33 13t-9 33l9 111q1 12 -13 14q-46 5 -93.5 15.5t-95.5 30.5q-32 12 -32 47q0 3 -1 16.5t-1 31t2 36t8.5 31.5t18.5 17.5t32 -6.5q43 -23 84 -36t82 -17q15 -2 15 12l2 168q0 12 -14 17
q-111 25 -164.5 75t-54.5 138q-1 102 61.5 157.5t169.5 66.5q10 2 13 4.5t3 10.5l2 77q0 8 3.5 16t13.5 12q6 3 13 3h14t14 -0.5t13 -2.5q10 -5 12.5 -13t2.5 -16v-75q0 -14 13 -15q76 -6 152 -29q37 -10 35 -46l-1 -27q-1 -23 -16.5 -33t-37.5 0q-65 28 -135 36
q-5 1 -8.5 -1t-3.5 -13l-4 -217q0 -12 14 -15q118 -23 176.5 -72t60.5 -139q1 -70 -16 -114.5t-47.5 -71.5t-72.5 -39.5t-91 -18.5zM290 722q-54 -12 -82.5 -43t-28.5 -77q0 -37 25.5 -64t80.5 -41q13 -3 13 10l5 203q0 8 -3 10.5t-10 1.5zM406 358q-9 2 -11.5 0t-2.5 -10
l4 -147q0 -14 14 -11q49 8 70.5 21t21.5 48q0 37 -22.5 61t-73.5 38z" />
    <glyph glyph-name="percent" unicode="%" horiz-adv-x="792" 
d="M242 464q-43 0 -77 15t-58 42t-36.5 65.5t-12.5 85.5q0 46 13 84t37 65t58 42t76 15t76 -15t58 -42t37 -65t13 -84q0 -47 -13 -85.5t-37 -65.5t-58 -42t-76 -15zM268 -55q-13 -30 -42 -29l-62 2q-20 1 -31.5 14.5t-2.5 33.5l396 888q6 13 16 20.5t27 6.5l24 -1
q18 -1 30.5 -13t3.5 -34zM551 -45q-43 0 -77 15t-58 42t-36.5 65t-12.5 85q0 46 13 84.5t37 65.5t58 42t76 15q43 0 77 -15t57.5 -42.5t36 -65.5t12.5 -84q0 -47 -12.5 -85t-36.5 -65t-58 -42t-76 -15zM242 789q-33 0 -54.5 -27.5t-21.5 -87.5q0 -38 19 -52.5t57 -14.5
t56.5 14t18.5 53q0 60 -21.5 87.5t-53.5 27.5zM551 280q-32 0 -53.5 -26t-21.5 -83q0 -34 18.5 -47.5t56.5 -13.5t56.5 13.5t18.5 47.5q0 57 -21.5 83t-53.5 26z" />
    <glyph glyph-name="ampersand" unicode="&#x26;" horiz-adv-x="872" 
d="M699 -1q-14 0 -26 3.5t-21 14.5l-45 53q-5 5 -8.5 5.5t-10.5 -5.5q-33 -29 -59.5 -46t-50 -25.5t-45 -10.5t-45.5 -2q-89 0 -151.5 24t-102.5 64t-58 91.5t-18 107.5q0 139 138 247q5 5 6 8.5t-4 11.5q-20 32 -31 62.5t-11 61.5q0 48 18.5 91t51.5 73t79 44.5t102 5.5
q42 -7 71 -33t41.5 -60t7.5 -71t-32 -67t-63 -60t-70 -56l208 -225q5 -5 8.5 -3t8.5 8q23 26 32 58.5t14 63.5q3 18 14 29t32 11l63 1q21 0 32.5 -12.5t9.5 -32.5q-6 -63 -24 -123.5t-58 -121.5q-9 -12 0 -21l99 -106q19 -20 11 -39t-38 -19h-75zM298 778q-15 -14 -26 -31.5
t-15.5 -36t-1.5 -37t14 -34.5q6 -8 14 -19t19 -24q2 -2 5.5 2t10.5 9q43 33 70 60t39 48.5t10.5 39t-13.5 32.5q-24 29 -59.5 24.5t-66.5 -33.5zM275 456q-5 6 -11 6l-8 -7q-42 -36 -59 -74.5t-17 -80.5q0 -9 3 -26t18 -34.5t45.5 -30.5t86.5 -13h31.5t39.5 1t38 4t26 8
q6 5 6.5 8.5t-5.5 10.5z" />
    <glyph glyph-name="quotesingle" unicode="'" horiz-adv-x="259" 
d="M171 763q-2 -10 -8.5 -17.5t-21.5 -7.5h-53q-12 0 -22 7t-8 22l30 217q2 10 8.5 17.5t21.5 7.5h53q12 0 22 -7t8 -22z" />
    <glyph glyph-name="parenleft" unicode="(" horiz-adv-x="456" 
d="M265 -81q6 -20 -2.5 -36.5t-36.5 -13.5l-83 9q-15 2 -27.5 10.5t-16.5 25.5q-26 129 -37.5 260.5t4.5 258t64.5 244.5t141.5 221q10 11 21 16t28 3l42 -6q27 -4 32.5 -21t-8.5 -36q-90 -117 -135 -227.5t-55 -222.5t9.5 -231t58.5 -254z" />
    <glyph glyph-name="parenright" unicode=")" horiz-adv-x="402" 
d="M95 -136q-26 2 -34.5 17.5t2.5 37.5q60 126 99 240t47.5 226t-18 228t-97.5 248q-11 21 -2 37.5t35 15.5l42 -1q17 -1 27.5 -7.5t18.5 -18.5q74 -116 103 -239.5t24.5 -250.5t-36 -255t-79.5 -253q-7 -17 -20 -23.5t-29 -5.5z" />
    <glyph glyph-name="asterisk" unicode="*" horiz-adv-x="611" 
d="M526 385q-11 -16 -26 -17.5t-30 6.5l-118 67q-8 5 -6 -5l13 -106q2 -16 -6 -28.5t-28 -15.5l-27 -4q-19 -3 -32 5.5t-13 29.5v117q0 3 -2 4t-4 -1l-100 -77q-15 -11 -30.5 -10t-27.5 17l-19 25q-12 16 -8 30t21 23l124 64q3 2 5.5 2.5t-1.5 2.5l-128 49q-17 7 -23 20.5
t5 29.5l16 24q20 31 54 12l111 -63q2 -2 4 -1t1 4l-12 98q-2 14 5.5 25.5t25.5 16.5l26 6q20 5 32.5 -4.5t12.5 -29.5v-113q0 -8 6 -3l128 77q19 11 35 4t19 -28l2 -15q4 -28 -24 -42l-122 -62q-4 -3 3 -5l139 -50q21 -8 24.5 -23.5t-7.5 -30.5z" />
    <glyph glyph-name="plus" unicode="+" horiz-adv-x="776" 
d="M460 258q-12 0 -12 -13v-206q0 -18 -11.5 -28.5t-29.5 -10.5h-37q-18 0 -30 9.5t-12 29.5v206q0 8 -2.5 10.5t-8.5 2.5h-216q-17 0 -30 9.5t-13 29.5v37q0 20 12.5 29.5t30.5 9.5h216q11 0 11 11v207q0 17 10.5 28t31.5 11h37q19 0 30 -10.5t11 -28.5v-207q0 -11 12 -11
h216q17 0 29.5 -10t12.5 -29v-37q0 -19 -12 -29t-30 -10h-216z" />
    <glyph glyph-name="comma" unicode="," horiz-adv-x="331" 
d="M155 -130q-8 -9 -18 -15t-24 -6h-16q-21 0 -32.5 13t-3.5 32l49 108q5 11 3 22l-10 60q-3 20 10.5 29t30.5 9h77q20 0 29.5 -9.5t11.5 -24.5l10 -59q2 -12 -2 -22t-11 -18z" />
    <glyph glyph-name="hyphen" unicode="-" horiz-adv-x="416" 
d="M352 264q-5 -27 -41 -27l-214 -3q-20 0 -30.5 9t-7.5 23l6 28q6 26 41 26l214 3q20 0 30 -9t7 -23z" />
    <glyph glyph-name="period" unicode="." horiz-adv-x="298" 
d="M234 31q-1 -15 -12.5 -23t-28.5 -8h-97q-19 0 -29 9.5t-9 24.5l6 97q1 15 12.5 23t28.5 8h96q20 0 30 -9.5t9 -24.5z" />
    <glyph glyph-name="slash" unicode="/" horiz-adv-x="619" 
d="M199 -67q-13 -30 -42 -29l-62 2q-20 1 -31.5 14.5t-2.5 33.5l396 888q6 13 16 20.5t27 6.5l24 -1q18 -1 30.5 -13t3.5 -34z" />
    <glyph glyph-name="zero" unicode="0" horiz-adv-x="741" 
d="M364 -14q-77 0 -135.5 30t-97.5 87.5t-57.5 140.5t-15.5 189q6 241 84 360.5t234 119.5q157 0 232 -121t75 -359q0 -213 -81.5 -330t-237.5 -117zM376 794q-79 0 -122 -67.5t-43 -212.5q0 -80 9.5 -135.5t28 -90.5t47.5 -50.5t68 -15.5q80 0 126 69.5t52 222.5
q6 144 -40 212t-126 68zM373 372q-21 0 -35 10.5t-22.5 26.5t-12.5 35.5t-4 37.5q0 80 15 126t59 46q38 0 55.5 -39.5t17.5 -132.5q0 -18 -4 -37.5t-12.5 -35.5t-22.5 -26.5t-34 -10.5z" />
    <glyph glyph-name="one" unicode="1" horiz-adv-x="638" 
d="M139 0q-21 0 -32 12t-11 30v82q0 19 10.5 31t32.5 12h100q15 0 15 13l12 533q0 14 -14 11l-144 -28q-22 -5 -36 6.5t-14 32.5v58q0 17 10 29t29 14l159 20q4 1 9.5 2t13.5 2l121 24q23 2 34 -11t11 -32l-11 -661q0 -13 14 -13h89q22 0 32.5 -12t10.5 -31v-82
q0 -18 -11 -30t-32 -12h-398z" />
    <glyph glyph-name="two" unicode="2" horiz-adv-x="699" 
d="M108 0q-43 0 -43 42v114q0 28 21 45q88 70 152.5 126t108 98.5t68 71.5t32.5 44q10 19 15.5 44t5.5 44q0 61 -32.5 97.5t-104.5 36.5q-46 0 -95.5 -16.5t-106.5 -58.5q-14 -10 -24 -9.5t-17 6t-11 14.5t-6 17l-12 52q-4 16 7 32q5 5 11 8.5t11 6.5q66 38 128 55t113 17
q69 0 125.5 -17.5t97 -50t62.5 -79t22 -104.5q0 -60 -26.5 -117t-66.5 -112q-20 -28 -42 -54.5t-46 -53.5q-23 -26 -46 -51.5t-46 -50.5q-4 -4 1.5 -4.5t11.5 -0.5h221q20 0 32 -12t12 -32v-106q0 -19 -12 -30.5t-32 -11.5h-489z" />
    <glyph glyph-name="three" unicode="3" horiz-adv-x="724" 
d="M543 477q37 -20 61 -41t37.5 -46t19 -54t5.5 -66q0 -143 -93 -213.5t-258 -70.5q-102 0 -211 34q-17 5 -24.5 17.5t-9.5 26.5l-12 115q-2 15 3.5 23.5t13.5 12t18.5 3t19.5 -4.5q35 -15 85 -26t101.5 -12.5t97 8.5t71.5 37t35 60t-5 62.5t-53.5 49.5t-110.5 20h-71
q-20 0 -32 11t-12 31v37q0 20 12 31.5t32 11.5h76q84 0 123 30t39 84q0 65 -38 94t-100 32q-23 2 -49.5 -1.5t-54.5 -8.5l-113 -21q-22 -4 -33 6t-16 28l-13 42q-5 14 -1.5 30t26.5 21q31 6 63 11.5t65 10.5q32 5 65.5 7t65.5 -1q54 -5 103.5 -20.5t87.5 -45.5t61.5 -75
t25.5 -108q1 -31 -5 -55.5t-19.5 -44.5t-33 -37.5t-45.5 -34.5z" />
    <glyph glyph-name="four" unicode="4" horiz-adv-x="753" 
d="M694 319q0 -19 -12 -30t-33 -11l-57 1q-15 0 -15 -14l10 -222q1 -20 -11.5 -31.5t-32.5 -11.5h-121q-20 0 -33 11.5t-11 32.5l22 225q1 6 -1.5 9.5t-12.5 3.5l-295 4q-15 0 -25.5 9.5t-6.5 26.5q13 59 22.5 100.5t16.5 74t14 61t14 61t16.5 73.5t22.5 100q4 22 30 28
l74 16q17 4 27 -6t7 -27q-19 -96 -29 -150t-16 -87q-3 -17 -5.5 -31t-5 -27.5t-5 -28t-5.5 -33.5q-1 -5 -1.5 -8.5t-0.5 -6.5q-1 -1 -1 -3q1 -2 2.5 0t3.5 2l155 -2q8 0 10.5 2t4.5 12q5 36 8.5 61.5t6 48.5t5 47t5.5 56.5t7 76.5t10 108q2 19 20 26l7 2l66 21q52 17 49 -43
l-16 -408q0 -8 3 -11t12 -3l59 -1q22 0 32.5 -12t10.5 -30z" />
    <glyph glyph-name="five" unicode="5" horiz-adv-x="703" 
d="M300 -14q-49 0 -100.5 7t-105.5 22q-17 5 -27.5 16.5t-8.5 31.5l12 112q2 23 17 33.5t38 -0.5q39 -17 81.5 -26.5t83.5 -10.5t77.5 6t64.5 23t44.5 41t16.5 59q0 37 -16.5 65t-42.5 46.5t-57.5 29t-62 14t-57 -0.5t-40.5 -14q-20 -14 -40.5 -18t-33.5 -4q-8 0 -16 0.5
t-15 4.5q-10 5 -13.5 13.5t-3.5 18.5l-10 377q-1 20 11.5 31.5t32.5 11.5h385q23 0 31 -12.5t12 -26.5l11 -39q3 -12 0.5 -20.5t-9 -14t-15.5 -8.5t-18 -3h-302q-15 0 -14 -13l10 -144q1 -8 3.5 -10t10.5 0q66 12 138 5t133 -40.5t100.5 -98t39.5 -166.5q0 -72 -23.5 -127.5
t-67.5 -93.5t-108.5 -57.5t-145.5 -19.5z" />
    <glyph glyph-name="six" unicode="6" horiz-adv-x="743" 
d="M207 507q35 35 80 54t99 20q67 1 122 -19t94 -58t60.5 -92.5t22.5 -122.5q1 -67 -19.5 -122.5t-59 -95t-94 -62t-123.5 -23.5q-80 -1 -140.5 28t-102.5 85.5t-64 139t-24 188.5q-2 100 23 182.5t72.5 141.5t116 92.5t153.5 35.5q40 1 74.5 -6t76.5 -18q15 -4 24.5 -17.5
t12.5 -24.5l10 -43q3 -14 -1 -23t-12.5 -13.5t-19.5 -4.5t-20 3q-72 24 -139 23q-100 -2 -154.5 -61t-67.5 -187zM380 463q-70 -2 -111.5 -48t-39.5 -134q1 -47 41.5 -77t115.5 -28t114.5 32.5t38.5 78.5q-2 87 -45.5 132.5t-113.5 43.5z" />
    <glyph glyph-name="seven" unicode="7" horiz-adv-x="695" 
d="M394 34q-10 -34 -46 -34h-146q-24 0 -36 14.5t-1 37.5l324 684q4 8 3 10t-12 2h-366q-22 0 -32 12.5t-13 26.5l-10 43q-3 12 0.5 20.5t10.5 14t16 8t18 2.5h489q20 0 32 -11t12 -31v-8q0 -10 -1 -23.5t-5 -24.5z" />
    <glyph glyph-name="eight" unicode="8" horiz-adv-x="760" 
d="M546 461q69 -27 112.5 -81t43.5 -130q0 -65 -23 -114t-65 -82.5t-101.5 -50.5t-132.5 -17t-132.5 17t-101.5 50.5t-65 82.5t-23 114q0 76 43 130t115 80q-58 26 -86 75t-28 113q0 115 71.5 178.5t206.5 63.5t206.5 -63.5t71.5 -178.5q0 -63 -27 -112t-85 -75zM380 780
q-66 0 -100.5 -31.5t-34.5 -85.5t34.5 -84.5t100.5 -30.5t100.5 30.5t34.5 84.5t-34.5 85.5t-100.5 31.5zM380 397q-80 0 -121.5 -30.5t-41.5 -104.5q0 -14 10.5 -29.5t30.5 -29t50.5 -22.5t71.5 -9q40 0 71 9t51.5 22.5t31 29t10.5 29.5q0 74 -42 104.5t-122 30.5z" />
    <glyph glyph-name="nine" unicode="9" horiz-adv-x="652" 
d="M439 376q-13 -6 -33 -9.5t-41 -5.5t-40.5 -2h-31.5q-45 1 -87.5 10t-76 33.5t-53.5 68t-18 114.5q1 66 23 120.5t57 93.5t79.5 60t92.5 20q80 -2 135 -32.5t88.5 -88.5t48 -141t12.5 -189q-2 -109 -15.5 -184.5t-38.5 -124.5t-61 -76t-82.5 -39.5t-103 -14.5t-123.5 -1
q-20 7 -26.5 18.5t-8.5 26.5l-9 92q-2 21 12.5 37t37.5 15q48 -2 83.5 0.5t61.5 8.5t43.5 16t29.5 22q23 25 32 64q5 20 8.5 42t7.5 47zM317 785q-26 0 -49 -9t-40 -24.5t-27.5 -37.5t-10.5 -47q-1 -59 8 -92t25.5 -49.5t39 -20.5t49.5 -4q27 -1 50 2.5t40.5 19t27.5 48.5
t11 92q0 25 -9.5 47t-26 38.5t-39.5 26.5t-49 10z" />
    <glyph glyph-name="colon" unicode=":" horiz-adv-x="289" 
d="M98 397q-19 0 -29.5 10.5t-10.5 28.5v90q0 17 10 28t30 11h93q20 0 30 -11t10 -28v-90q0 -17 -10 -28t-30 -11h-93zM99 0q-18 0 -29 10.5t-11 27.5v101q0 38 40 38h92q40 0 40 -38v-101q0 -17 -10 -27.5t-30 -10.5h-92z" />
    <glyph glyph-name="semicolon" unicode=";" horiz-adv-x="309" 
d="M137 387q-19 0 -30 10.5t-11 28.5v96q0 17 10.5 27.5t30.5 10.5h73q19 0 30 -10.5t11 -27.5v-96q0 -18 -11 -28.5t-30 -10.5h-73zM163 -145q-13 -25 -44 -25h-23q-20 0 -31 12.5t-6 32.5l36 133q4 11 4 26v54q0 39 40 39h69q18 0 29.5 -10t11.5 -29v-53q0 -20 -10 -37z
" />
    <glyph glyph-name="less" unicode="&#x3c;" horiz-adv-x="794" 
d="M730 479q-4 -30 -35 -36l-456 -89q-2 0 -2.5 -1t1.5 -2l413 -203q28 -13 23 -43l-9 -64q-3 -20 -19 -26.5t-33 2.5l-532 279q-6 3 -11 13t-7.5 22t-3.5 24t0 18t5.5 16.5t10.5 21t13.5 18.5t14.5 10l589 114q19 4 33.5 -6t10.5 -32z" />
    <glyph glyph-name="equal" unicode="=" horiz-adv-x="782" 
d="M98 353q-30 0 -30 27v47q0 12 8 19.5t22 7.5h596q14 0 22 -7.5t8 -19.5v-47q0 -27 -30 -27h-596zM88 172q-14 0 -22 7.5t-8 19.5v62q0 12 8 19.5t22 7.5h596q14 0 22 -7.5t8 -19.5v-62q0 -12 -8 -19.5t-22 -7.5h-596z" />
    <glyph glyph-name="greater" unicode="&#x3e;" horiz-adv-x="785" 
d="M103 75q-20 -5 -33.5 5.5t-11.5 30.5l6 64q3 29 33 37l451 111q2 0 2 1t-2 2l-423 183q-29 12 -26 43l3 36q2 21 17.5 28.5t33.5 -0.5l547 -237q7 -3 12 -12.5t8.5 -21.5t5 -23t1.5 -17t-3.5 -17t-9.5 -22t-13 -20t-13 -11z" />
    <glyph glyph-name="question" unicode="?" horiz-adv-x="601" 
d="M440 533q-29 -30 -47 -51.5t-28 -41t-13 -40.5t-3 -49v-41q0 -19 -12 -30.5t-32 -11.5h-92q-20 0 -32.5 10.5t-12.5 31.5v58q0 29 3 54t13 48t27 45.5t46 46.5l58 49q45 38 61 66t11 54q-7 39 -32 63t-76 24q-70 0 -162 -53q-21 -12 -40 -4t-19 35v25q0 32 28 47
q101 53 213 53q55 0 100 -15t77 -42.5t49.5 -66.5t17.5 -87t-29 -88.5t-74 -88.5zM213 -5q-20 0 -32.5 11.5t-12.5 31.5v102q0 20 12 31.5t33 11.5h93q20 0 32.5 -11.5t12.5 -31.5v-102q0 -20 -12.5 -31.5t-32.5 -11.5h-93z" />
    <glyph glyph-name="at" unicode="@" horiz-adv-x="1011" 
d="M631 451q0 13 8 21t22 8h39q14 0 22 -8t8 -21v-271q51 0 86.5 32.5t35.5 104.5q0 97 -59 168q-49 60 -117.5 91t-153.5 31q-117 0 -209 -58q-75 -48 -115.5 -122t-40.5 -162q0 -66 29.5 -121.5t79 -96.5t114 -64t134.5 -23q32 0 51 1t39 5q5 1 8.5 1.5t8.5 -0.5
q12 -1 19 -13l40 -69q5 -8 3.5 -20.5t-15.5 -18.5q-23 -11 -66 -15.5t-88 -4.5q-189 0 -323 125q-66 62 -99.5 141t-33.5 173q0 91 34.5 170.5t97.5 140.5q66 63 150 95.5t181 32.5q109 0 199.5 -42.5t153.5 -120.5q79 -99 79 -222q0 -59 -16.5 -103t-43 -76t-60 -53.5
t-66.5 -34t-62.5 -17.5t-48.5 -5q-14 0 -19.5 8t-7.5 16v13v11q0 5 -3 2t-18 -11q-32 -17 -63.5 -25t-54.5 -8q-55 0 -93.5 17t-63 47t-36 71.5t-11.5 90.5t15 91t42 72t64.5 47t82.5 17q86 0 141 -49v11zM494 416q-54 0 -84 -30.5t-30 -84.5q0 -29 3 -51t14.5 -36.5t34 -22
t62.5 -5.5q41 1 64 9t34.5 22t14 35t2.5 49q0 54 -30.5 84.5t-84.5 30.5z" />
    <glyph glyph-name="A" unicode="A" horiz-adv-x="914" 
d="M698 0q-17 0 -29.5 8.5t-17.5 26.5l-21 91q-2 9 -5 11.5t-12 2.5h-312q-11 0 -14 -2.5t-4 -7.5l-17 -95q-3 -19 -16.5 -27t-30.5 -8h-120q-17 0 -29.5 8.5t-12.5 25.5q0 9 4 18l319 778q12 30 47 30h60q35 0 47 -30l318 -778q4 -9 4 -18q0 -17 -12.5 -25.5t-28.5 -8.5
h-117zM457 631l-112 -323q-1 -1 -1 -6t11 -5h204q8 0 9.5 2t1.5 3q0 6 -1 7z" />
    <glyph glyph-name="B" unicode="B" horiz-adv-x="767" 
d="M544 467q45 -10 76.5 -31.5t51 -50.5t28.5 -64.5t9 -73.5q0 -60 -23.5 -106t-66.5 -77.5t-103.5 -47.5t-133.5 -16h-281q-21 0 -32 12t-11 30v776q0 42 43 42h229q136 0 213.5 -56.5t77.5 -162.5q0 -127 -77 -174zM218 756q-14 0 -14 -14v-211q0 -14 14 -14h132
q82 0 118 28t36 83q0 57 -36.5 92.5t-117.5 35.5h-132zM218 393q-14 0 -14 -12v-199q0 -13 14 -13h158q66 0 105.5 20.5t54.5 50t7 62.5t-38 58q-39 33 -129 33h-158z" />
    <glyph glyph-name="C" unicode="C" horiz-adv-x="829" 
d="M759 101q-2 -14 -7.5 -23.5t-16.5 -19.5q-48 -42 -117.5 -57t-141.5 -15q-110 0 -189 31.5t-130 89.5t-75 140.5t-24 184.5t27.5 184.5t80.5 140.5t131 89.5t179 31.5q72 0 139.5 -8t127.5 -37q14 -7 22.5 -19.5t4.5 -29.5l-12 -53q-5 -23 -19 -31t-38 6
q-51 31 -106.5 42t-118.5 11q-139 0 -203.5 -81.5t-61.5 -245.5q1 -65 12 -105t39.5 -62.5t80 -30.5t133.5 -8q31 0 65.5 4.5t67 12t60 18t44.5 22.5q7 5 17.5 7.5t20 -0.5t15.5 -11.5t5 -24.5z" />
    <glyph glyph-name="D" unicode="D" horiz-adv-x="869" 
d="M101 0q-20 0 -31.5 11.5t-11.5 30.5v776q0 42 43 42h211q105 0 196 -25.5t158.5 -78t106 -133.5t38.5 -192t-39 -192.5t-106.5 -134.5t-158.5 -78.5t-195 -25.5h-211zM224 739q-13 0 -13 -13v-487q0 -13 13 -13h112q64 0 123 7t103.5 29t71 62.5t26.5 106.5q0 71 -19 128
t-58.5 97t-101 61.5t-145.5 21.5h-112z" />
    <glyph glyph-name="E" unicode="E" horiz-adv-x="700" 
d="M102 0q-20 0 -32 11.5t-12 30.5v776q0 21 12 31.5t32 10.5h486q20 0 32 -10.5t12 -31.5v-20q0 -19 -12 -30.5t-32 -11.5h-370q-13 0 -13 -13v-212q0 -14 13 -14h353q43 0 43 -42v-38q0 -20 -11.5 -32t-31.5 -12h-353q-8 0 -10.5 -2t-2.5 -10v-140q0 -9 3 -12t10 -3h381
q43 0 43 -41v-143q0 -18 -11 -30t-32 -12h-497z" />
    <glyph glyph-name="F" unicode="F" horiz-adv-x="653" 
d="M229 742q-9 0 -11.5 -2.5t-2.5 -9.5l2 -195q0 -9 2.5 -11.5t10.5 -2.5h278q43 0 43 -43v-61q0 -19 -11 -30.5t-32 -11.5h-272q-14 0 -13 -13l21 -319q2 -20 -10.5 -31.5t-32.5 -11.5h-98q-20 0 -33 11.5t-12 31.5l23 776q2 41 43 41h426q20 0 32.5 -11t12.5 -31v-32
q0 -20 -12.5 -32t-32.5 -12h-321z" />
    <glyph glyph-name="G" unicode="G" horiz-adv-x="897" 
d="M823 74q-69 -43 -149.5 -65.5t-171.5 -22.5q-104 0 -186.5 30.5t-139.5 88t-87.5 140t-30.5 187.5t34.5 188t94.5 140t141 87.5t174 30.5h36t57 -3t82.5 -11t116.5 -24q10 -2 15.5 -11.5t7.5 -20.5l12 -76q3 -20 -7 -25t-33 0q-67 15 -115 23.5t-81 12.5q-32 3 -51.5 3.5
t-29.5 0.5q-65 0 -118.5 -17t-92.5 -53.5t-60 -94t-19 -138.5q1 -57 5.5 -97.5t15 -68t30 -43.5t51.5 -24.5t78 -11t110 -2.5q57 0 99 7.5t63 23.5q3 1 3 9v72q0 2 -3 2h-149q-15 0 -24 8.5t-9 23.5v74q0 15 9 23t24 8h282q14 0 23 -8.5t9 -22.5v-309q0 -21 -16 -34z" />
    <glyph glyph-name="H" unicode="H" horiz-adv-x="811" 
d="M634 0q-43 0 -43 42v182q0 14 -15 14h-342q-13 0 -13 -14v-182q0 -21 -12.5 -31.5t-32.5 -10.5h-75q-20 0 -32.5 11t-10.5 31l10 776q0 20 12.5 31t32.5 11h63q20 0 32.5 -11.5t12.5 -31.5v-381q0 -14 13 -14h342q15 0 15 14v381q0 19 11 31t32 12h65q20 0 32 -11t12 -31
l10 -776q0 -19 -11.5 -30.5t-31.5 -11.5h-76z" />
    <glyph glyph-name="I" unicode="I" horiz-adv-x="361" 
d="M102 0q-9 0 -18 2.5t-16 8t-9.5 14.5t0.5 21q27 100 47.5 203t28.5 202.5t0 194.5t-39 180q-5 12 -1 20.5t11.5 13.5t17 7.5t16.5 2.5h97q20 0 33.5 -12t9.5 -34q-8 -50 -13 -117.5t-7 -143t-1 -153t6 -147t13.5 -125.5t21.5 -88q5 -13 2.5 -22.5t-9.5 -15.5t-16.5 -9
t-17.5 -3h-157z" />
    <glyph glyph-name="J" unicode="J" horiz-adv-x="523" 
d="M429 81q-4 -78 -22 -133t-53 -90t-87.5 -51.5t-124.5 -17.5l-40 4q-21 2 -31 14t-12 29l-1 127q0 23 14 34t36 6l10 -2q8 -2 15 -3t15 0q32 4 54 13.5t36 22.5t20.5 27.5t7.5 28.5l47 767q2 19 13 31t33 10l65 -5q19 -2 30.5 -13t10.5 -31z" />
    <glyph glyph-name="K" unicode="K" horiz-adv-x="814" 
d="M514 0q-30 0 -46 24l-242 331q-7 7 -7 -3l18 -309q1 -19 -10.5 -31t-31.5 -12h-94q-21 0 -32.5 12t-10.5 31l22 776q2 41 44 41h59q21 0 32.5 -11.5t10.5 -31.5l-9 -275q0 -5 3 -6.5t7 2.5l334 305q11 10 22 13.5t25 3.5h76q15 0 25 -5.5t13.5 -14t0 -19t-14.5 -20.5
l-368 -334q-9 -9 1 -18l401 -390q20 -20 12 -39.5t-38 -19.5h-202z" />
    <glyph glyph-name="L" unicode="L" horiz-adv-x="708" 
d="M642 40q-3 -40 -44 -40h-497q-20 0 -31.5 11.5t-11.5 30.5l11 777q0 20 12 30.5t32 10.5h59q20 0 32.5 -11t12.5 -31l-7 -578q0 -14 13 -14h384q21 0 33 -11t10 -32z" />
    <glyph glyph-name="M" unicode="M" horiz-adv-x="949" 
d="M747 0q-21 0 -32.5 12t-11.5 30l-8 597q0 2 -0.5 3.5t-0.5 -0.5l-127 -487q-5 -18 -18.5 -26t-29.5 -8h-90q-39 0 -48 34l-127 487q0 2 -0.5 0.5t-0.5 -3.5l-8 -597q0 -18 -11.5 -30t-32.5 -12h-100q-21 0 -32.5 12t-10.5 31l42 776q2 41 44 41h120q36 0 48 -31l157 -429
q5 -15 10 0l169 429q12 31 47 31h109q43 0 45 -41l42 -776q1 -20 -11.5 -31.5t-32.5 -11.5h-100z" />
    <glyph glyph-name="N" unicode="N" horiz-adv-x="820" 
d="M601 0q-32 0 -47 28l-332 607q-5 9 -6 8.5t0 -9.5l41 -591q2 -20 -10.5 -31.5t-32.5 -11.5h-113q-21 0 -32.5 12t-10.5 31l33 759q1 19 12.5 30.5t31.5 11.5h94q31 0 47 -28l326 -578q2 -4 4.5 -3.5t2.5 4.5l15 580q2 41 44 41h50q20 0 32 -11t12 -31v-776
q0 -19 -12 -30.5t-32 -11.5h-117z" />
    <glyph glyph-name="O" unicode="O" horiz-adv-x="932" 
d="M466 -14q-86 0 -160 31.5t-129.5 90t-87 140.5t-31.5 184q0 100 31.5 182.5t86.5 141t129.5 90.5t160.5 32q85 0 159.5 -32t130 -90.5t87 -141t31.5 -182.5q0 -101 -31.5 -183t-87 -140.5t-130 -90.5t-159.5 -32zM466 758q-59 0 -107.5 -22t-82.5 -64t-52.5 -102.5
t-18.5 -137.5q0 -60 17.5 -99t51 -62.5t82 -32.5t110.5 -9t110.5 9t81.5 32.5t50.5 62.5t17.5 99q0 77 -18.5 137.5t-52.5 102.5t-82 64t-107 22z" />
    <glyph glyph-name="P" unicode="P" horiz-adv-x="741" 
d="M263 323q-9 0 -12 -3.5t-3 -9.5l3 -268q0 -21 -12.5 -31.5t-32.5 -10.5h-105q-21 0 -32.5 12t-10.5 31l44 776q3 41 44 41h229q151 0 229.5 -65.5t78.5 -197.5t-78 -203t-230 -71h-112zM269 756q-9 0 -12 -3t-3 -11l-9 -213q0 -8 2.5 -10.5t10.5 -2.5h129q42 0 73.5 4.5
t52 18t30.5 38t10 65.5q0 23 -10.5 44t-31 36.5t-51.5 24.5t-73 9h-118z" />
    <glyph glyph-name="Q" unicode="Q" horiz-adv-x="925" 
d="M640 -129q-15 0 -26 5.5t-20 15.5l-93 102q-9 10 -26 10q-9 -1 -15 -1h-12q-92 0 -164.5 32t-122.5 90.5t-76.5 141.5t-26.5 184t28 183.5t80 141.5t125 91t163 32t163 -32t125 -91t80 -141.5t28 -183.5q0 -68 -11 -122t-29.5 -97.5t-41.5 -77.5t-47 -61q-5 -6 -5 -10
t6 -11l131 -143q19 -21 10.5 -39.5t-36.5 -18.5h-187zM454 778q-54 0 -99 -22t-77.5 -64t-50 -102.5t-17.5 -138.5q0 -61 15 -97t38 -55.5t50 -26.5t51 -8l31 -2q5 0 9 -1t6 -1q3 0 4 1q2 1 3.5 4.5t4.5 8.5q5 8 12.5 20.5t19.5 30.5q11 17 26.5 21.5t32.5 -6.5l34 -20
q8 -5 15 -9t15 -7q14 -6 26.5 -5.5t26.5 9.5q21 13 34 26t20.5 29.5t10 37.5t2.5 50q0 78 -17.5 138.5t-49.5 102.5t-76.5 64t-99.5 22z" />
    <glyph glyph-name="R" unicode="R" horiz-adv-x="827" 
d="M530 404q32 -20 67 -59t65 -97l100 -194q11 -21 2.5 -37.5t-35.5 -16.5h-115q-36 0 -48 31l-77 191q-21 40 -39.5 65t-39 39t-44.5 19.5t-56 5.5h-69q-16 0 -14 -12l24 -296q2 -20 -11 -31.5t-32 -11.5h-107q-19 0 -31 11.5t-12 30.5l12 777q0 41 43 41h235
q135 0 212.5 -62.5t77.5 -191.5q0 -72 -28 -123.5t-80 -78.5zM242 756q-15 0 -15 -14l-11 -214q0 -7 2.5 -9.5t11.5 -2.5h129q33 0 63 7t52.5 19.5t36 30t13.5 37.5q0 43 -14 71.5t-37 45t-53 23t-61 6.5h-117z" />
    <glyph glyph-name="S" unicode="S" horiz-adv-x="773" 
d="M371 -14q-29 0 -63 2.5t-70.5 8t-73.5 14t-71 20.5q-15 5 -26 17t-9 30l12 139q2 23 18 33t39 -1q30 -15 63 -26t66.5 -18t65.5 -10.5t60 -3.5q53 0 84.5 10t48 23.5t21 28.5t4.5 24q0 13 -4.5 26t-18 25.5t-39.5 23t-69 19.5l-71 14q-132 26 -196 82.5t-64 158.5
q0 59 22.5 106t64 79.5t100.5 49.5t132 17q57 0 119.5 -9t123.5 -27q17 -3 28.5 -15.5t6.5 -32.5l-12 -50q-5 -23 -25.5 -31.5t-41.5 0.5q-55 23 -98 34.5t-88 11.5q-94 0 -139 -33.5t-45 -90.5q0 -23 6 -40t23 -30.5t46.5 -24t76.5 -19.5l71 -14q135 -26 200.5 -89
t65.5 -172q0 -130 -89.5 -195t-254.5 -65z" />
    <glyph glyph-name="T" unicode="T" horiz-adv-x="875" 
d="M524 747q-6 0 -9 -2.5t-3 -11.5l28 -690q1 -18 -9.5 -30.5t-32.5 -12.5h-119q-21 0 -32.5 12t-10.5 31l27 690q0 9 -3 11.5t-9 2.5l-247 -10q-22 -1 -34 11t-12 32v38q0 21 12 31.5t32 10.5h670q21 0 33 -11t12 -31v-38q0 -20 -12.5 -32t-33.5 -11z" />
    <glyph glyph-name="U" unicode="U" horiz-adv-x="816" 
d="M753 329q-2 -170 -87.5 -256.5t-256.5 -86.5q-172 0 -257.5 86.5t-87.5 256.5l-6 491q0 43 43 43h66q21 0 32.5 -12t11.5 -32l-5 -399q-2 -94 46.5 -142.5t156.5 -48.5q106 0 154.5 48.5t47.5 142.5l-4 399q0 20 10.5 32t32.5 12h65q21 0 32 -12t11 -31z" />
    <glyph glyph-name="V" unicode="V" horiz-adv-x="858" 
d="M547 33q-11 -33 -47 -33h-140q-37 0 -47 33l-252 776q-8 22 3.5 36.5t34.5 14.5h63q35 0 47 -31l215 -556q5 -15 10 0l217 556q12 31 47 31h62q24 0 34 -15t3 -36z" />
    <glyph glyph-name="W" unicode="W" horiz-adv-x="1233" 
d="M931 34q-10 -34 -46 -34h-121q-34 0 -47 30l-102 220q-5 10 -9 0l-107 -221q-14 -29 -48 -29h-131q-36 0 -46 36l-214 775q-7 23 6 36t34 13h54q34 0 46 -34l193 -529q2 -6 5.5 -7t6.5 5l127 232q15 27 47 27h56q35 0 48 -28l114 -235q5 -12 10 1l224 535q6 15 17 24
t30 9h55q21 0 34.5 -13.5t5.5 -36.5z" />
    <glyph glyph-name="X" unicode="X" horiz-adv-x="870" 
d="M637 0q-31 0 -48 26l-147 234q-5 7 -6.5 7t-6.5 -7l-149 -234q-17 -26 -48 -26h-134q-28 0 -37 17.5t8 39.5l266 335q9 13 2 23l-225 391q-13 22 -2.5 38t35.5 16h63q31 0 48 -27l181 -300q5 -8 7 -8t7 8l182 301q15 26 48 26h62q26 0 36 -16.5t-3 -38.5l-232 -391
q-7 -13 0 -23l258 -334q16 -20 7 -38.5t-37 -18.5h-135z" />
    <glyph glyph-name="Y" unicode="Y" horiz-adv-x="846" 
d="M521 309q-8 -17 -7 -27l24 -239q2 -21 -12 -32t-33 -11h-146q-19 0 -32.5 10t-11.5 33l23 239q1 8 0 14t-6 14l-256 496q-11 22 -1 38t35 16h65q31 0 46 -27l209 -370q6 -12 13 0l206 370q15 27 46 27h65q27 0 35.5 -16.5t-2.5 -37.5z" />
    <glyph glyph-name="Z" unicode="Z" horiz-adv-x="871" 
d="M344 233q-10 -10 5 -10h403q20 0 32.5 -11t12.5 -31v-139q0 -20 -12.5 -31t-32.5 -11h-651q-20 0 -31.5 11.5t-11.5 30.5v138q0 25 18 43l486 504q7 7 6.5 8t-10.5 1h-455q-21 0 -32 12.5t-11 30.5v39q0 42 43 42h666q20 0 32 -11t12 -31v-38q0 -23 -18 -44z" />
    <glyph glyph-name="bracketleft" unicode="[" horiz-adv-x="409" 
d="M350 891q0 -14 -8.5 -23t-24.5 -9l-103 2q-2 0 -2 -3l-14 -872q0 -3 1 -3l103 -2q14 0 23.5 -7.5t9.5 -23.5l-2 -132q0 -14 -8.5 -23t-24.5 -9l-209 4q-15 0 -24 8.5t-9 23.5l18 1119q0 14 8.5 23t24.5 9l209 -4q15 0 24 -8.5t9 -23.5z" />
    <glyph glyph-name="backslash" unicode="\" horiz-adv-x="619" 
d="M462 -96q-29 -1 -42 29l-359 888q-9 22 3.5 34t30.5 13l24 1q17 1 27 -6.5t16 -20.5l396 -888q9 -20 -2.5 -33.5t-31.5 -14.5z" />
    <glyph glyph-name="bracketright" unicode="]" horiz-adv-x="409" 
d="M109 -214q-16 0 -24.5 9t-8.5 23l-2 132q0 16 9.5 23.5t23.5 7.5l103 2q1 0 1 3l-14 872q0 3 -2 3l-103 -2q-16 0 -24.5 9t-8.5 23l-1 46q0 15 9 23.5t24 8.5l209 4q16 0 24.5 -9t8.5 -23l18 -1119q0 -15 -9 -23.5t-24 -8.5z" />
    <glyph glyph-name="asciicircum" unicode="^" horiz-adv-x="746" 
d="M373 648l-142 -177q-11 -14 -30 -14h-115q-20 0 -26 13t8 26l248 222q13 11 30 11h54q17 0 30 -11l248 -222q14 -13 8 -26t-26 -13h-115q-19 0 -30 14z" />
    <glyph glyph-name="underscore" unicode="_" horiz-adv-x="666" 
d="M88 -216q-30 0 -30 23v49q0 23 30 23h490q30 0 30 -23v-49q0 -23 -30 -23h-490z" />
    <glyph glyph-name="grave" unicode="`" horiz-adv-x="363" 
d="M179 656q-21 0 -31 16l-85 132q-8 13 -1 24t24 11h65q20 0 30 -13l117 -134q11 -13 5 -24.5t-26 -11.5h-98z" />
    <glyph glyph-name="a" unicode="a" horiz-adv-x="608" 
d="M470 -1q-17 0 -28.5 9.5t-11.5 27.5v11q-64 -61 -174 -61q-44 0 -80.5 12.5t-62.5 36t-40.5 56.5t-14.5 74q0 97 67 144t194 47h102q5 0 7 -4t2 -2q0 54 -33 84.5t-108 34.5q-37 2 -72.5 -6t-68.5 -22q-19 -8 -34.5 -0.5t-15.5 29.5v20q0 29 30 40q88 30 171 30
q251 0 251 -250v-274q0 -16 -10 -26.5t-29 -10.5h-41zM314 264q-46 0 -74.5 -4t-45 -12t-23 -20t-7.5 -28q-1 -6 -0.5 -10.5t2.5 -10.5q8 -22 32 -28t72 -6q30 0 51 3.5t34 15t19 33.5t6 60q0 4 -1.5 5.5t-7.5 1.5h-57z" />
    <glyph glyph-name="b" unicode="b" horiz-adv-x="624" 
d="M169 517q31 30 70.5 41.5t87.5 11.5q54 0 98 -21.5t75.5 -60.5t48.5 -92.5t17 -117.5t-17 -117.5t-48.5 -92.5t-75.5 -60.5t-98 -21.5t-92.5 7.5t-64.5 22.5t-42 36.5t-26 50.5q-8 11 -13.5 35.5t-9 59.5t-6 78.5t-5.5 91.5q-3 51 -5 107.5t-4.5 114t-5 116t-5.5 114.5
q-1 17 9.5 28.5t29.5 11.5h50q20 0 30 -11t9 -28zM338 469q-63 0 -100 -45t-37 -139q5 -35 10 -59t18.5 -39.5t38.5 -22t70 -4.5q39 1 65 13t41 31.5t20.5 45t4.5 53.5q-3 82 -37 124t-94 42z" />
    <glyph glyph-name="c" unicode="c" horiz-adv-x="579" 
d="M471 440q-59 24 -119 24q-81 0 -122.5 -49.5t-41.5 -140.5q6 -62 42 -93.5t119 -35.5q29 -2 59.5 6t62.5 19q19 6 33.5 -1.5t14.5 -29.5l1 -85q0 -31 -27 -41q-71 -27 -151 -27q-65 0 -117.5 20.5t-89.5 58t-57 90.5t-20 118q0 66 20 119t57.5 90.5t91 57.5t121.5 20
q78 0 144 -25q29 -11 29 -40v-26q0 -22 -15.5 -29.5t-34.5 0.5z" />
    <glyph glyph-name="d" unicode="d" horiz-adv-x="644" 
d="M466 823q2 37 40 37h41q19 0 29 -11t10 -28l-9 -784q0 -17 -10.5 -27t-28.5 -10h-41q-40 0 -40 37v12q-29 -33 -69 -48t-91 -15q-54 0 -98 21.5t-75.5 60.5t-48.5 92.5t-17 117.5t17 117.5t48.5 92.5t75.5 60.5t98 21.5q104 0 161 -63l1 -1zM290 478q-60 0 -97 -44
t-40 -132v-13.5t2 -12.5q11 -56 41 -79.5t92 -23.5q33 0 57.5 4t40.5 16.5t23.5 36.5t7.5 64q0 96 -32 140t-95 44z" />
    <glyph glyph-name="e" unicode="e" horiz-adv-x="630" 
d="M196 270q-5 0 -7 -1.5t-2 -7.5q0 -37 7.5 -59.5t26 -35t49.5 -17t79 -4.5q45 0 91 2.5t75 8.5q16 4 31.5 -2t15.5 -29l1 -69q0 -28 -26 -40q-23 -11 -43.5 -17.5t-42.5 -9.5t-47.5 -3.5t-57.5 0.5q-293 7 -288 272q1 66 20 121.5t54.5 95.5t86 62.5t116.5 22.5
q44 0 86.5 -16t76 -46.5t54 -76t20.5 -104.5v-9q0 -17 -10.5 -27.5t-28.5 -10.5h-337zM335 484q-62 0 -101.5 -31t-45.5 -76q-1 -6 1 -7.5t7 -1.5l269 1q5 0 6.5 1t-0.5 8q-9 48 -45.5 77t-90.5 29z" />
    <glyph glyph-name="f" unicode="f" horiz-adv-x="568" 
d="M349 442q-5 0 -7 -1.5t-2 -7.5l13 -394q1 -17 -9.5 -28t-29.5 -11h-102q-19 0 -29.5 11t-8.5 29l34 394q2 8 -9 8h-101q-17 0 -28.5 10t-11.5 28v39q0 18 11 28t29 10h103q10 0 11 10l2 13q1 79 14 132.5t35.5 84t53.5 41.5t69 7l57 -7q15 -2 25.5 -11.5t10.5 -26.5v-25
q0 -19 -11.5 -29t-31.5 -8l-55 7q-15 2 -24 -2.5t-13.5 -21t-6.5 -48t-3 -83.5l3 -23q1 -10 11 -10h123q39 0 39 -38v-39q0 -18 -11 -28t-28 -10h-122z" />
    <glyph glyph-name="g" unicode="g" horiz-adv-x="644" 
d="M444 37q-27 -22 -64 -35t-83 -13q-54 0 -98.5 21t-75.5 58.5t-48 90t-17 115.5t17 116t48 90.5t75.5 58.5t98.5 21q51 0 92 -15.5t70 -49.5q3 -3 3 -1l2 20q2 17 13.5 25t27.5 8h42q19 0 29.5 -10.5t9.5 -28.5l-14 -439q-4 -126 -21 -208t-50 -130t-82.5 -67t-118.5 -19
q-42 0 -81 5t-75 17q-30 9 -30 40v105q0 22 15.5 29.5t34.5 -0.5q31 -14 61 -19.5t61 -5.5t55 10.5t43 34t32.5 61.5t23.5 93zM284 463q-63 0 -95.5 -44.5t-32.5 -138.5q4 -44 11 -68.5t20.5 -36t35 -14t54.5 -2.5q36 0 63 3t45 15t27.5 36t9.5 66q0 94 -37 139t-101 45z
" />
    <glyph glyph-name="h" unicode="h" horiz-adv-x="641" 
d="M480 0q-18 0 -29 10.5t-10 28.5l14 292q2 43 -4.5 71t-20.5 44t-34.5 22.5t-46.5 6.5q-33 0 -59.5 -11.5t-45.5 -32.5t-28.5 -51t-8.5 -66l9 -275q1 -17 -9.5 -28t-29.5 -11h-80q-18 0 -29 10.5t-10 28.5l38 784q1 37 40 37h41q19 0 29.5 -11t9.5 -28q-2 -60 -3.5 -92
t-3 -47t-3 -17.5t-2.5 -2.5t-1.5 -2.5t0 -17t2 -47t3.5 -91.5q0 1 1 2q63 64 160 64q103 0 152 -61t53 -175l9 -295q1 -17 -9.5 -28t-29.5 -11h-64z" />
    <glyph glyph-name="i" unicode="i" horiz-adv-x="287" 
d="M112 630q-14 0 -22.5 7.5t-7.5 21.5l2 71q1 28 30 28l66 1q14 0 22 -8t8 -20l2 -72q1 -14 -7.5 -21.5t-22.5 -7.5h-70zM97 -5q-18 0 -30 10t-9 31q9 59 16.5 114t12 111.5t5.5 118t-3 134.5q-1 17 11 26.5t29 9.5h42q18 0 29.5 -10.5t9.5 -29.5q-6 -54 -9.5 -117t-2 -126
t8 -122t20.5 -107q6 -22 -7 -32.5t-30 -10.5h-93z" />
    <glyph glyph-name="j" unicode="j" horiz-adv-x="488" 
d="M336 620q-20 0 -30 11t-9 28l3 64q1 16 11 26.5t28 10.5h33q17 0 28 -10t12 -27l3 -64q1 -18 -10 -28.5t-29 -10.5h-40zM387 -66q-4 -53 -28 -104t-61 -91.5t-82.5 -65t-93.5 -24.5h-25q-19 0 -29 11t-10 28l2 122q0 18 11 28t29 10h13q23 0 50 8.5t50 31t38.5 61.5
t16.5 101l7 463q0 18 11 28.5t29 9.5l77 -2q17 -1 28.5 -11t9.5 -28z" />
    <glyph glyph-name="k" unicode="k" horiz-adv-x="624" 
d="M405 0q-25 0 -41 19l-166 196q-2 2 -2 -1l10 -175q1 -17 -9 -28t-29 -11h-70q-18 0 -29.5 10.5t-10.5 28.5l19 684q2 37 39 37h42q19 0 29 -11t10 -28l-4 -344q0 -5 4 -1l143 161q15 18 41 18h58q26 0 34 -16.5t-8 -35.5l-168 -200q-3 -4 -3.5 -6.5t4.5 -7.5l254 -235
q19 -18 11.5 -36t-34.5 -18h-124z" />
    <glyph glyph-name="l" unicode="l" horiz-adv-x="380" 
d="M117 0q-20 0 -28.5 11t-10.5 26q-9 97 -5 188t7 176q4 85 2 158.5t-22 136.5q-4 12 -0.5 20t10 13t15 7t14.5 2h52q21 0 28.5 -11.5t9.5 -24.5q8 -54 8 -121.5t-1 -142.5t1.5 -146.5t14.5 -134.5q1 -5 2.5 -8.5t6.5 -3.5h61q40 0 40 -38v-70q0 -17 -11 -27t-29 -10h-165z
" />
    <glyph glyph-name="m" unicode="m" horiz-adv-x="968" 
d="M528 464q34 48 76 72t103 24q47 0 82.5 -17.5t59.5 -48.5t36.5 -73.5t14.5 -92.5l10 -299q1 -14 -7.5 -21.5t-22.5 -7.5h-103q-15 0 -23 9t-6 22l32 309q0 67 -17.5 95t-65.5 28q-31 0 -54.5 -11.5t-40 -32.5t-25.5 -49.5t-11 -62.5l-14 -279q-1 -28 -31 -28h-93
q-14 0 -22.5 8.5t-6.5 22.5l42 314q5 36 -0.5 59.5t-19 37.5t-34 19.5t-45.5 5.5q-26 0 -48 -12.5t-38 -34t-25 -50.5t-9 -62v-280q0 -28 -30 -28h-105q-14 0 -22 8t-7 21l33 491q1 28 31 28h59q14 0 22.5 -9t6.5 -22l-2 -14q30 29 66.5 43t78.5 14q57 0 103 -24t72 -72z
" />
    <glyph glyph-name="n" unicode="n" horiz-adv-x="656" 
d="M461 0q-20 0 -30 10.5t-9 28.5l18 291q5 72 -20 102t-76 30q-76 0 -114.5 -38.5t-32.5 -110.5l24 -274q2 -18 -9.5 -28.5t-29.5 -10.5h-85q-19 0 -29.5 10.5t-9.5 27.5l13 478q2 36 40 36h42q19 0 29 -10.5t10 -27.5v-3q0 -6 5 -3q30 20 69.5 36t87.5 16q51 0 88 -15.5
t62 -45t40 -72.5t21 -98l33 -290q2 -18 -9 -28.5t-30 -10.5h-98z" />
    <glyph glyph-name="o" unicode="o" horiz-adv-x="648" 
d="M324 -14q-63 0 -112 20t-83.5 57.5t-52.5 90.5t-18 119t18 119.5t52.5 90.5t83.5 57t112 20q62 0 111.5 -20t84 -57t52.5 -90.5t18 -119.5t-18 -119t-52.5 -90.5t-84 -57.5t-111.5 -20zM324 469q-63 0 -102 -46.5t-39 -134.5q0 -41 9 -66t27 -38.5t44 -17.5t61 -4
q34 0 60.5 4t44.5 17.5t27 38.5t9 66q0 88 -39 134.5t-102 46.5z" />
    <glyph glyph-name="p" unicode="p" horiz-adv-x="671" 
d="M215 507q56 53 149 53q54 0 99.5 -21.5t79 -60t52 -92t18.5 -117.5q0 -77 -18 -131.5t-50.5 -90t-78.5 -52t-102 -16.5h-29t-40 4q-21 4 -43 13t-39 26l-12 -193q-3 -37 -40 -37h-64q-18 0 -29 11t-9 30l39 293l1 375q0 18 11 28.5t29 10.5h38q17 0 27.5 -9t10.5 -24z
M377 462q-63 0 -100 -47.5t-37 -141.5q0 -44 9.5 -70.5t27.5 -40.5t44.5 -18.5t60.5 -4.5q33 0 58.5 4.5t42 18.5t25 40.5t8.5 70.5q0 94 -38 141.5t-101 47.5z" />
    <glyph glyph-name="q" unicode="q" horiz-adv-x="721" 
d="M638 -171q16 0 20.5 -10t4.5 -18q-1 -15 -16 -30l-70 -63q-18 -15 -40 -15l-84 -1q-19 0 -29.5 11t-8.5 30l36 300q-57 -57 -155 -57q-54 0 -98 21.5t-75 60.5t-48 92.5t-17 117.5t17 117.5t48 92.5t75 60.5t98 21.5q105 0 164 -66q4 -4 4 -1l4 20q3 15 13.5 24t27.5 9
h39q20 0 30 -11t9 -29l-36 -664q0 -4 -0.5 -7.5t-0.5 -7.5zM285 469q-63 0 -95.5 -47t-32.5 -141q0 -45 7.5 -71t22.5 -39.5t39 -17t57 -3.5q34 0 60.5 4t44.5 17.5t27 39.5t9 70q0 94 -38 141t-101 47z" />
    <glyph glyph-name="r" unicode="r" horiz-adv-x="474" 
d="M372 439q-9 2 -18 2h-21q-35 0 -59 -5.5t-39 -19.5t-21.5 -38.5t-6.5 -63.5l26 -275q2 -18 -9 -28.5t-30 -10.5h-98q-20 0 -30 12t-7 30q13 70 20.5 123.5t11.5 104.5t4 106t-2 128q-1 17 9.5 27.5t29.5 10.5h34q17 0 28 -8t11 -25q0 -7 6 -2q24 15 62.5 29t86.5 14h10.5
t11.5 -1q17 -2 25 -13t8 -25q0 -12 1 -26t-2 -25t-12.5 -17.5t-29.5 -3.5z" />
    <glyph glyph-name="s" unicode="s" horiz-adv-x="564" 
d="M265 -14q-41 0 -84 6.5t-91 20.5q-32 9 -32 40v93q0 22 15 30t35 0q81 -35 159 -35q33 0 51 11t21 25t-11 28.5t-46 21.5q-38 8 -77.5 17t-71 26t-51.5 46t-20 77q0 82 60 124.5t165 42.5q93 0 160 -22q30 -9 30 -40v-23q0 -22 -14.5 -30t-34.5 0q-62 24 -130 24
q-66 0 -95 -20t-29 -49q0 -12 4 -22t16 -18t34.5 -16t58.5 -16l31 -7q48 -11 83.5 -24.5t59 -33t34.5 -46t11 -62.5q0 -41 -17.5 -72.5t-49 -53t-76 -32.5t-98.5 -11z" />
    <glyph glyph-name="t" unicode="t" horiz-adv-x="447" 
d="M322 0q-68 0 -111 4.5t-66.5 23.5t-30.5 56.5t-4 102.5l13 262q0 5 -1.5 6.5t-7.5 1.5h-20q-18 0 -27 11t-9 26v20q0 18 10 28.5t29 10.5h18q10 0 10 9l3 84q2 37 40 37h46q19 0 29.5 -10.5t9.5 -28.5l-3 -82q0 -6 2 -7.5t7 -1.5h77q19 0 29 -11t10 -28v-20
q0 -37 -39 -37h-78q-10 0 -10 -9l-4 -205q-1 -21 -0.5 -37t0.5 -27q1 -12 2 -17.5t3 -7.5t5 -3.5t13 -1.5q10 -3 23.5 -2t31.5 1h28q19 0 29 -11t10 -28v-72q0 -17 -11 -27t-28 -10h-28z" />
    <glyph glyph-name="u" unicode="u" horiz-adv-x="596" 
d="M461 -1q-20 -1 -29 10.5t-9 27.5v13q-64 -64 -158 -64q-103 0 -155 60.5t-52 172.5v290q0 38 39 38h37q18 0 29 -10t10 -28l-9 -223q-2 -52 4 -80.5t19.5 -42t34 -16t47.5 -2.5q33 0 59.5 6.5t45 23.5t28 45.5t9.5 73.5l-1 216q0 18 11.5 27.5t28.5 9.5l48 1q17 0 28 -10
t11 -27l1 -473q0 -17 -11 -27t-29 -11z" />
    <glyph glyph-name="v" unicode="v" horiz-adv-x="683" 
d="M428 28q-12 -28 -42 -28h-90q-30 0 -42 28l-193 473q-8 20 3 33t31 13h45q30 0 42 -26l157 -325q2 -8 4 0l157 325q12 26 43 26h45q22 0 31.5 -13t1.5 -33z" />
    <glyph glyph-name="w" unicode="w" horiz-adv-x="862" 
d="M665 30q-9 -30 -41 -30h-84q-30 0 -42 27l-65 147q-2 5 -4 -1l-69 -147q-12 -26 -42 -26h-79q-32 0 -41 30l-138 473q-6 20 4 32t31 12h40q30 0 41 -30l102 -303q1 -5 5 -1l68 121q14 23 42 23h72q28 0 42 -23l73 -120q3 -5 5 0l101 303q10 30 41 30h40q21 0 31 -12
t4 -32z" />
    <glyph glyph-name="x" unicode="x" horiz-adv-x="680" 
d="M489 0q-26 0 -42 21l-97 122q-5 8 -10 1l-106 -125q-16 -19 -42 -19h-97q-25 0 -34.5 16.5t8.5 35.5l189 204q7 7 1 15l-158 225q-14 20 -5 35.5t33 15.5h41q27 0 42 -21l123 -174q5 -8 10 0l136 175q15 20 41 20h37q23 0 33 -15.5t-4 -35.5l-162 -230q-5 -8 1 -15
l184 -199q17 -19 8.5 -35.5t-33.5 -16.5h-97z" />
    <glyph glyph-name="y" unicode="y" horiz-adv-x="686" 
d="M406 -48q-29 -74 -59.5 -120.5t-62 -72.5t-64.5 -36t-66 -10h-57q-18 0 -28.5 10t-10.5 28v72q0 17 10 27.5t29 10.5h38q21 0 45.5 15.5t47 41t41.5 56.5t30 63q5 13 0 21l-213 440q-10 20 0.5 34.5t32.5 14.5h44q27 0 42 -23l165 -262q5 -7 7 1l125 258q12 26 42 26h47
q20 0 31 -13.5t3 -33.5z" />
    <glyph glyph-name="z" unicode="z" horiz-adv-x="609" 
d="M97 0q-17 0 -28 10t-11 27v84q0 22 17 39l315 291q4 4 -2 4h-259q-18 0 -28.5 10t-10.5 27v17q0 17 10 27.5t29 10.5h373q39 0 39 -38v-38q0 -22 -15 -38l-280 -286q-4 -4 3 -4h263q19 0 29 -10.5t10 -27.5v-68q0 -37 -39 -37h-415z" />
    <glyph glyph-name="braceleft" unicode="{" horiz-adv-x="528" 
d="M236 396q17 -9 28 -22.5t17 -37.5q4 -14 5 -33t3 -43q2 -25 1.5 -56t-0.5 -71q0 -21 3 -36t13 -24.5t28.5 -14.5t50.5 -6l15 1q16 1 24 -7.5t9 -20.5l4 -86q1 -13 -6.5 -21.5t-21.5 -9.5l-15 -1q-64 -4 -108.5 5.5t-72.5 33.5t-40.5 63.5t-12.5 95.5q0 77 -2.5 122.5
t-9 69.5t-17.5 31t-28 7h-15q-30 0 -30 29l2 78q0 28 31 28h14q13 0 23.5 2t18.5 11.5t13.5 29t9.5 55t6.5 89t4.5 131.5q1 57 17 93t46.5 56t76 27t107.5 7l16 -2q30 -4 25 -34l-7 -38q-5 -27 -34 -24l-17 4q-34 -1 -53.5 -4.5t-29 -13.5t-12.5 -28t-4 -48
q-2 -64 -3 -112.5t-3 -86.5t-3.5 -65.5t-6.5 -47.5q-8 -34 -22.5 -50.5t-37.5 -24.5z" />
    <glyph glyph-name="bar" unicode="|" horiz-adv-x="293" 
d="M211 346l-15 -553q0 -13 -8 -21t-22 -8h-79q-31 0 -29 30l32 554l27 567q2 29 31 29h58q31 0 29 -30z" />
    <glyph glyph-name="braceright" unicode="}" horiz-adv-x="528" 
d="M292 396q-23 8 -37.5 24.5t-22.5 50.5q-5 20 -6.5 47.5t-3.5 65.5t-3 86.5t-3 112.5q-1 30 -4 48t-12.5 28t-29 13.5t-53.5 4.5l-17 -4q-29 -3 -34 24l-7 38q-5 30 25 34l16 2q62 0 107.5 -7t76 -27t46 -56t17.5 -93q2 -78 4.5 -131.5t6.5 -89t9.5 -55t13.5 -29t18 -11.5
t24 -2h14q31 0 31 -28l2 -78q0 -29 -30 -29h-15q-17 0 -28 -7t-17.5 -31t-9 -69.5t-2.5 -122.5q0 -56 -12.5 -95.5t-40.5 -63.5t-72.5 -33.5t-108.5 -5.5l-15 1q-14 1 -21.5 9.5t-6.5 21.5l4 86q1 12 9 20.5t24 7.5l15 -1q31 1 50 6t29 14.5t13 24.5t3 36q0 40 -0.5 71
t1.5 56q2 24 3.5 43t4.5 33q6 24 17 37.5t28 22.5z" />
    <glyph glyph-name="asciitilde" unicode="~" horiz-adv-x="872" 
d="M799 280q-26 -18 -53.5 -36.5t-56.5 -33.5t-60 -25.5t-65 -12.5q-45 -3 -85.5 9t-75.5 28q-17 8 -33.5 14.5t-31.5 11.5q-28 10 -50 7q-29 -5 -47 -12t-35 -20q-19 -14 -42.5 -35t-62.5 -50q-13 -10 -28 -6t-15 24v184q0 17 15 28q30 22 55 36t51 23.5t56.5 15.5t71.5 11
q37 5 74 -6t72 -24q17 -7 33.5 -12.5t32.5 -10.5q33 -9 53 -8q20 2 39.5 7.5t42 17.5t50.5 32.5t66 52.5q13 11 28.5 7t15.5 -24v-165q0 -18 -15 -28z" />
    <glyph glyph-name="uni00A0" unicode="&#xa0;" horiz-adv-x="929" 
 />
    <glyph glyph-name="exclamdown" unicode="&#xa1;" horiz-adv-x="295" 
d="M227 856q-2 -18 -12.5 -29.5t-32.5 -11.5h-69q-20 0 -31.5 11t-13.5 30l-7 89q-2 20 9.5 32.5t33.5 12.5h88q20 0 32.5 -12.5t10.5 -32.5zM214 315l-4 -316q0 -8 -2.5 -15.5t-8 -13.5t-13.5 -8.5t-19 -0.5l-46 10q-13 3 -24.5 10t-12.5 27l-8 307l-18 368q-1 17 9 28.5
t29 11.5h103q19 0 29 -11t9 -29z" />
    <glyph glyph-name="cent" unicode="&#xa2;" horiz-adv-x="513" 
d="M409 432q-14 6 -26.5 10t-26.5 7l-7 -168l-3 -94q16 3 31.5 7.5t31.5 9.5q17 5 30.5 -1.5t13.5 -26.5l1 -73q0 -28 -25 -38q-21 -8 -42 -13t-44 -8l-5 -156q-2 -24 -26 -24h-57q-11 0 -18.5 6.5t-6.5 18.5l9 159q-85 17 -133 82t-48 161q0 106 54.5 170.5t153.5 76.5
l7 149q1 10 7.5 17t18.5 7h42q13 0 19.5 -7.5t5.5 -18.5l-6 -149q17 -2 34 -6t34 -11q27 -11 27 -37v-22q0 -21 -15 -28t-31 0zM173 292q4 -40 21.5 -64.5t53.5 -35.5l5 91l8 163q-42 -13 -65 -52t-23 -102z" />
    <glyph glyph-name="sterling" unicode="&#xa3;" horiz-adv-x="646" 
d="M337 380l120 4q14 1 22 -7.5t8 -21.5l-1 -42q0 -30 -31 -30l-126 -3q-2 0 -2 -2l-8 -99q-4 -46 61 -46h178q30 0 30 -29v-71q0 -29 -30 -29h-470q-30 0 -30 29v71q0 29 30 29h37q7 0 14 1.5t13.5 6t12.5 13.5t11 25l28 99l-87 -3q-16 0 -23 8t-8.5 19.5t0.5 23.5t2 20
q0 12 8 19t20 8l95 4q3 0 3 2l6 100q2 33 19.5 66.5t46 60.5t65 44t76.5 17q23 0 46 -4t43 -10q23 -8 23 -30v-34q0 -20 -13 -25t-27 3q-12 6 -25.5 10t-28.5 4q-21 0 -38.5 -3.5t-31 -15t-23 -32.5t-14.5 -56z" />
    <glyph glyph-name="currency" unicode="&#xa4;" horiz-adv-x="639" 
d="M539 57q-9 -8 -21 -10t-23 9l-61 58q-1 1 -2 0q-54 -32 -111 -31t-114 30q-1 1 -5 -1l-59 -49q-10 -8 -21.5 -8t-20.5 9l-34 33q-10 9 -9.5 20t11.5 20l59 49v3q-31 54 -31.5 114.5t32.5 114.5q1 1 0 3l-52 57q-8 9 -8.5 20t8.5 19l35 33q10 9 21.5 9t22.5 -11l51 -54
q2 -2 2 0q54 29 111 29t111 -29h3l52 56q21 23 43 2l35 -33q9 -8 8.5 -19t-8.5 -20l-51 -56q-2 -5 -1 -5q15 -25 23 -54t8.5 -59.5t-7.5 -60.5t-25 -57q-2 -2 0 -2l61 -57q10 -9 9.5 -20.5t-9.5 -20.5zM320 422q-24 0 -45.5 -8.5t-37.5 -23t-25 -34.5t-9 -43
q0 -45 32.5 -67.5t84.5 -22.5q52 1 84.5 23t32.5 67q0 23 -9 43t-25 34.5t-37 23t-46 8.5z" />
    <glyph glyph-name="yen" unicode="&#xa5;" horiz-adv-x="846" 
d="M595 450h140q30 0 30 -29v-50q0 -29 -30 -29h-197l-17 -33q-8 -17 -7 -28l1 -9h210q30 0 30 -28v-66q0 -29 -30 -29h-198l11 -106q2 -21 -12 -32t-33 -11h-146q-19 0 -32.5 10t-11.5 33l11 106h-185q-30 0 -30 29v66q0 28 30 28h196l1 9q2 14 -6 28l-17 33h-164
q-30 0 -30 29v50q0 29 30 29h108l-183 356q-11 22 -1 38t35 16h65q31 0 46 -27l209 -370q6 -12 13 0l206 370q15 27 46 27h65q27 0 35.5 -16.5t-2.5 -37.5z" />
    <glyph glyph-name="brokenbar" unicode="&#xa6;" horiz-adv-x="273" 
d="M195 293h-113l21 471h113zM181 -236h-124l27 508h112z" />
    <glyph glyph-name="section" unicode="&#xa7;" horiz-adv-x="610" 
d="M113 -203q-13 4 -23.5 13t-10.5 26l1 119q0 21 14.5 30.5t35.5 1.5q44 -18 92 -30t87 -10.5t63.5 18.5t22.5 58q-2 26 -10 42t-21.5 25t-32.5 13t-42 7q-66 9 -113.5 31t-75.5 54t-37 71t0 83q8 38 19.5 61t23.5 38q5 7 10.5 12t10.5 10t8.5 9t5.5 9q-15 22 -30.5 42
t-17.5 49q-5 59 9.5 101t43 69.5t68.5 42.5t85.5 19.5t94 0t95.5 -14.5q9 0 18 -3q15 -5 20 -15t5 -21.5t-3 -23.5t-4 -22q-3 -21 -20.5 -30t-37.5 -2q-57 19 -103.5 26t-79.5 -1.5t-49.5 -35t-12.5 -74.5q1 -20 4.5 -33t14.5 -22t33.5 -16.5t62.5 -14.5q51 -10 95 -29.5
t74 -51t41.5 -76.5t-1.5 -105q-8 -36 -16 -65.5t-16 -53.5q0 -3 2 -5q29 -45 33 -106q4 -64 -14 -109t-51 -74t-78 -43.5t-94.5 -18t-101 3.5t-97.5 21zM415 199q11 54 13 88t-14.5 56t-57 37.5t-113.5 32.5l-3 -3q-55 -55 -58.5 -94.5t26.5 -65.5t86 -38.5t121 -12.5z" />
    <glyph glyph-name="dieresis" unicode="&#xa8;" horiz-adv-x="477" 
d="M313 659q-30 0 -30 23v60q0 23 30 23h76q30 0 30 -23v-60q0 -23 -30 -23h-76zM88 659q-30 0 -30 23v60q0 23 30 23h77q30 0 30 -23v-60q0 -23 -30 -23h-77z" />
    <glyph glyph-name="copyright" unicode="&#xa9;" horiz-adv-x="870" 
d="M435 0q-78 0 -146.5 16t-119.5 56.5t-81 110.5t-30 179q0 76 29.5 142t80.5 115t120 77.5t147 28.5t147 -28.5t120 -77.5t80.5 -115t29.5 -142q0 -109 -30 -179t-81 -110.5t-119.5 -56.5t-146.5 -16zM435 648q-62 0 -116 -22.5t-94.5 -61.5t-64 -91t-23.5 -111t22.5 -105
t62.5 -78t94.5 -48.5t118.5 -16.5t118 16t94 47t62.5 77.5t22.5 107.5q0 59 -23 111t-62.5 91t-94 61.5t-117.5 22.5zM561 184q-51 -20 -110 -20q-48 0 -86.5 15t-66 43t-42 67t-14.5 87q0 100 56.5 156.5t156.5 56.5q27 0 53 -5t52 -14q23 -7 23 -32v-19q0 -19 -13 -25.5
t-29 0.5q-20 9 -41 13t-42 4q-55 0 -84.5 -34t-29.5 -100q5 -42 29.5 -65t82.5 -25q21 -1 43.5 5.5t42.5 13.5q15 5 27.5 -1.5t12.5 -24.5l1 -63q0 -24 -22 -33z" />
    <glyph glyph-name="ordfeminine" unicode="&#xaa;" horiz-adv-x="646" 
d="M389 530q-3 26 -21.5 40t-58.5 17q-22 2 -43 -3t-41 -13q-14 -6 -26 -0.5t-12 22.5v12q0 23 22 29q51 19 106 19q159 0 159 -156v-164q0 -28 -30 -28h-25q-26 0 -29 22q-39 -30 -101 -30q-57 0 -92 31t-35 82q0 63 43.5 91.5t121.5 28.5h62zM88 203q-30 0 -30 28v38
q0 28 30 28h470q30 0 30 -28v-38q0 -28 -30 -28h-470zM324 465q-28 -1 -44.5 -3.5t-25 -7t-11.5 -10.5t-4 -13q-1 -4 1 -10q5 -14 20.5 -15.5t36.5 -1.5q18 0 29.5 1.5t19 8t10.5 19t3 33.5z" />
    <glyph glyph-name="guillemotleft" unicode="&#xab;" horiz-adv-x="613" 
d="M523 104q-10 -9 -22 -9t-22 9l-196 181q-1 4 -1.5 7t-0.5 7q-1 6 0 12t5 10l184 172q10 9 22 9t22 -9l18 -16q10 -8 9.5 -20t-9.5 -21l-138 -128l152 -143q10 -10 10.5 -20.5t-10.5 -19.5zM302 104q-10 -9 -22 -9t-22 9l-196 181q-1 4 -1.5 7t-0.5 7q-1 6 0 12t5 10
l184 172q10 9 22 9t22 -9l18 -16q10 -8 9.5 -20t-9.5 -21l-138 -128l152 -143q10 -10 10.5 -20.5t-10.5 -19.5z" />
    <glyph glyph-name="logicalnot" unicode="&#xac;" horiz-adv-x="785" 
d="M591 100q-14 0 -22 7.5t-8 19.5v152h-473q-30 0 -30 27v95q0 12 8 19.5t22 7.5h609q14 0 22 -7.5t8 -19.5v-274q0 -12 -8 -19.5t-22 -7.5h-106z" />
    <glyph glyph-name="softhyphen" unicode="&#xad;" horiz-adv-x="416" 
d="M352 264q-5 -27 -41 -27l-214 -3q-20 0 -30.5 9t-7.5 23l6 28q6 26 41 26l214 3q20 0 30 -9t7 -23z" />
    <glyph glyph-name="registered" unicode="&#xae;" horiz-adv-x="870" 
d="M435 0q-78 0 -146.5 16t-119.5 56.5t-81 110.5t-30 179q0 76 29.5 142t80.5 115t120 77.5t147 28.5t147 -28.5t120 -77.5t80.5 -115t29.5 -142q0 -109 -30 -179t-81 -110.5t-119.5 -56.5t-146.5 -16zM435 648q-62 0 -116 -22.5t-94.5 -61.5t-64 -91t-23.5 -111t22.5 -105
t62.5 -78t94.5 -48.5t118.5 -16.5t118 16t94 47t62.5 77.5t22.5 107.5q0 59 -23 111t-62.5 91t-94 61.5t-117.5 22.5zM526 372q13 -10 26 -25.5t24 -37.5l43 -85q6 -11 1.5 -23t-22.5 -12h-51q-9 0 -17 4.5t-12 14.5l-33 83q-9 16 -16.5 26.5t-15.5 15.5t-17.5 7t-21.5 2
h-27l10 -126q1 -12 -7 -19.5t-20 -7.5h-47q-11 0 -19 7.5t-8 18.5l5 338q0 12 7.5 19t19.5 7h103q63 0 99 -29.5t36 -89.5t-40 -88zM382 429h54q29 0 46.5 11t17.5 22q0 32 -19 44t-45 12h-49z" />
    <glyph glyph-name="macron" unicode="&#xaf;" horiz-adv-x="465" 
d="M88 657q-30 0 -30 23v55q0 23 30 23h289q30 0 30 -23v-55q0 -23 -30 -23h-289z" />
    <glyph glyph-name="degree" unicode="&#xb0;" horiz-adv-x="456" 
d="M227 432q-36 0 -67 11.5t-53.5 32.5t-35.5 49t-13 61t13.5 61.5t36.5 49.5t54 33t66 12t66 -12t55 -34q49 -46 49 -110q0 -32 -13.5 -60t-36.5 -49t-54 -33t-67 -12zM228 680q-34 0 -56 -19t-22 -45t22 -44.5t56 -18.5t56 18.5t22 44.5t-22.5 45t-55.5 19z" />
    <glyph glyph-name="plusminus" unicode="&#xb1;" horiz-adv-x="779" 
d="M463 416q-6 0 -9 -2t-3 -10v-208q0 -19 -11.5 -29.5t-29.5 -10.5h-37q-18 0 -30 10t-12 30v208q0 8 -2.5 10t-8.5 2h-216q-17 0 -30 10t-13 30v37q0 20 12.5 30t30.5 10h216q11 0 11 10v209q0 18 10.5 29t31.5 11h37q19 0 30 -10.5t11 -29.5v-209q0 -10 12 -10h216
q17 0 29.5 -10t12.5 -30v-37q0 -19 -12 -29.5t-30 -10.5h-216zM91 4q-30 0 -30 29v60q0 13 8 21t22 8h596q14 0 22 -8t8 -21v-60q0 -29 -30 -29h-596z" />
    <glyph glyph-name="twosuperior" unicode="&#xb2;" horiz-adv-x="388" 
d="M302 437q11 0 19.5 -7t8.5 -19v-45q0 -11 -8.5 -18t-19.5 -7h-214q-12 0 -19.5 7t-7.5 18v48q0 8 3.5 14t8.5 11q78 60 113.5 94.5t42.5 46.5q4 7 6 16t2 16q0 49 -51 49q-19 0 -39 -6.5t-45 -23.5q-9 -6 -15.5 -5.5t-11 4t-7.5 8.5t-4 9l-6 23q-2 16 12 24q2 1 2.5 1.5
t2.5 1.5q29 17 58 24.5t52 7.5q63 0 102.5 -29.5t39.5 -83.5q0 -27 -12.5 -52.5t-29.5 -48.5q-16 -21 -33.5 -40t-35.5 -38h86z" />
    <glyph glyph-name="threesuperior" unicode="&#xb3;" horiz-adv-x="398" 
d="M294 551q28 -17 37 -37.5t9 -50.5q0 -63 -43 -94.5t-118 -31.5q-45 0 -94 15q-11 2 -16 9t-6 16l-5 48q-2 18 11.5 22.5t24.5 -0.5q15 -6 36 -10.5t42 -5t39 3t28 13.5q9 9 13 21t-1 22.5t-20.5 17.5t-43.5 7h-31q-11 0 -19.5 7t-8.5 18v15q0 13 8.5 20t19.5 7h33
q35 0 48.5 11t13.5 29q0 44 -52 45q-9 1 -20 -0.5t-24 -3.5l-48 -9q-15 -3 -21.5 3.5t-9.5 15.5l-6 18q-2 6 -0.5 17t17.5 15q26 5 56 9t59 2q25 -2 48 -9t41 -20.5t29 -34t12 -48.5q1 -26 -9.5 -42.5t-28.5 -29.5z" />
    <glyph glyph-name="acute" unicode="&#xb4;" horiz-adv-x="363" 
d="M215 672q-10 -16 -31 -16h-98q-20 0 -26 11.5t5 24.5l117 134q10 13 30 13h65q17 0 24 -11t-1 -24z" />
    <glyph glyph-name="mu" unicode="&#xb5;" horiz-adv-x="754" 
d="M438 41q-62 -62 -156 -62q-54 0 -90 16l4 -265q0 -14 -8 -21t-21 -8l-79 -3q-14 -1 -22.5 7t-7.5 22l12 328l5 322v134q0 18 10 28.5t29 10.5h37q11 0 21 -4.5t15 -14.5q5 -7 8 -20l-3 -326q11 -30 31.5 -37.5t62.5 -7.5q33 0 59.5 6.5t45 24t28 47t9.5 75.5l-1 219
q0 19 11.5 28.5t28.5 9.5l48 1q17 0 28 -10t11 -28l1 -469q11 -27 26 -39.5t44 1.5q22 9 38 -7l25 -26q12 -12 8 -25t-19 -19q-55 -21 -99.5 -20t-76 17.5t-48 46.5t-15.5 68z" />
    <glyph glyph-name="paragraph" unicode="&#xb6;" horiz-adv-x="742" 
d="M549 -16q-14 0 -21.5 8t-8.5 21l-20 672l-56 -1l-1 -671q0 -29 -30 -29h-121q-15 0 -23 9t-6 22l32 308q-50 4 -93 25t-75 54.5t-50 76.5t-18 92q0 51 20 96.5t55 79t81.5 53.5t99.5 20h302q12 0 18 -2.5t11 -7.5v-8l39 -788q2 -30 -29 -30h-106z" />
    <glyph glyph-name="periodcentered" unicode="&#xb7;" horiz-adv-x="249" 
d="M58 285v124h133v-124h-133z" />
    <glyph glyph-name="cedilla" unicode="&#xb8;" horiz-adv-x="354" 
d="M77 -187q-15 5 -19 17t8 23l25 23q8 8 18 9.5t20 -2.5q23 -9 42 -10t27 8t3 29t-30 53q-9 13 -3.5 25t25.5 12h26q18 0 30 -13q42 -47 46 -88.5t-22 -68.5t-77.5 -33.5t-118.5 16.5z" />
    <glyph glyph-name="onesuperior" unicode="&#xb9;" horiz-adv-x="361" 
d="M239 426h37q27 0 27 -26v-34q0 -10 -7 -17.5t-20 -7.5h-174q-14 0 -20.5 8t-6.5 17v34q0 11 6.5 18.5t20.5 7.5h42l5 218l-59 -11q-15 -3 -23.5 5t-8.5 19v25q0 9 6.5 16t17.5 9l69 9q2 1 11 1l52 10q17 3 23.5 -6.5t6.5 -18.5z" />
    <glyph glyph-name="ordmasculine" unicode="&#xba;" horiz-adv-x="646" 
d="M323 368q-79 0 -123.5 48.5t-44.5 129.5q0 84 44.5 131.5t123.5 47.5t123.5 -47.5t44.5 -131.5q0 -81 -44.5 -129.5t-123.5 -48.5zM88 249q-30 0 -30 28v38q0 28 30 28h470q30 0 30 -28v-38q0 -28 -30 -28h-470zM323 659q-35 0 -57.5 -26t-22.5 -77q0 -24 5 -38t15 -21.5
t25 -9.5t35 -2t35 2.5t25 10t15 21.5t5 37q0 51 -22.5 77t-57.5 26z" />
    <glyph glyph-name="guillemotright" unicode="&#xbb;" horiz-adv-x="613" 
d="M356 104q-10 -9 -22 -9t-22 9l-23 21q-10 8 -9.5 19.5t9.5 20.5l152 143l-138 128q-9 9 -9.5 21t9.5 20l18 16q10 9 22 9t22 -9l184 -172q4 -4 4.5 -10t0.5 -12l-2 -14zM135 104q-10 -9 -22 -9t-22 9l-23 21q-10 8 -9.5 19.5t9.5 20.5l152 143l-138 128q-9 9 -9.5 21
t9.5 20l18 16q10 9 22 9t22 -9l184 -172q4 -4 4.5 -10t0.5 -12l-2 -14z" />
    <glyph glyph-name="onequarter" unicode="&#xbc;" horiz-adv-x="1461" 
d="M1174 227l72 -1l10 79q2 19 4.5 46t6.5 75q1 11 7.5 15t11.5 6l32 10q17 5 26.5 -3t8.5 -26l-8 -205l29 1q15 1 22 -8t7 -20v-31q0 -28 -30 -28h-29l5 -110q1 -13 -7 -21.5t-22 -8.5h-61q-13 0 -22 8.5t-7 22.5l11 112l-147 1q-11 0 -19 7.5t-5 19.5l53 235q5 17 21 20
l36 7q12 2 21 -4.5t6 -20.5zM592 -67q-13 -30 -42 -29l-62 2q-20 1 -31.5 14.5t-2.5 33.5l396 888q6 13 16 20.5t27 6.5l24 -1q18 -1 30.5 -13t3.5 -34zM163 694l-70 -13q-14 -3 -24 5t-10 22v29q0 26 25 29l80 10l11 2l61 11q16 3 23.5 -7t7.5 -21l-5 -332l44 2
q14 1 21.5 -8.5t7.5 -20.5v-42q0 -11 -7.5 -19.5t-21.5 -8.5h-199q-15 0 -22 8.5t-7 19.5v42q0 11 7 20t22 9h50z" />
    <glyph glyph-name="onehalf" unicode="&#xbd;" horiz-adv-x="1434" 
d="M1347 108q14 0 21.5 -8t7.5 -21v-54q0 -11 -7.5 -19.5t-21.5 -8.5h-245q-13 0 -21 7.5t-8 20.5v57q0 9 4 16.5t9 12.5q89 70 130 112t49 56q5 9 7.5 21t2.5 20q0 28 -14.5 44t-46.5 16q-22 0 -45.5 -8.5t-51.5 -28.5q-10 -7 -17 -6.5t-12 5t-8 10.5t-4 10l-6 26
q-3 12 2.5 19t15.5 13q34 20 66.5 28.5t58.5 8.5q72 0 116.5 -35.5t44.5 -98.5q0 -32 -14 -61.5t-34 -57.5q-19 -26 -40 -49.5t-43 -46.5h104zM592 -67q-13 -30 -42 -29l-62 2q-20 1 -31.5 14.5t-2.5 33.5l396 888q6 13 16 20.5t27 6.5l24 -1q18 -1 30.5 -13t3.5 -34z
M163 694l-70 -13q-14 -3 -24 5t-10 22v29q0 26 25 29l80 10l11 2l61 11q16 3 23.5 -7t7.5 -21l-5 -332l44 2q14 1 21.5 -8.5t7.5 -20.5v-42q0 -11 -7.5 -19.5t-21.5 -8.5h-199q-15 0 -22 8.5t-7 19.5v42q0 11 7 20t22 9h50z" />
    <glyph glyph-name="threequarters" unicode="&#xbe;" horiz-adv-x="1504" 
d="M1217 227l72 -1l10 79q2 19 4.5 46t6.5 75q1 11 7.5 15t11.5 6l32 10q17 5 26.5 -3t8.5 -26l-8 -205l29 1q15 1 22 -8t7 -20v-31q0 -28 -30 -28h-29l5 -110q1 -13 -7 -21.5t-22 -8.5h-61q-13 0 -22 8.5t-7 22.5l11 112l-147 1q-11 0 -19 7.5t-5 19.5l53 235q5 17 21 20
l36 7q12 2 21 -4.5t6 -20.5zM635 -67q-13 -30 -42 -29l-62 2q-20 1 -31.5 14.5t-2.5 33.5l396 888q6 13 16 20.5t27 6.5l24 -1q18 -1 30.5 -13t3.5 -34zM323 583q33 -20 44 -45t11 -60q0 -75 -49 -112t-134 -37q-26 0 -52.5 4t-55.5 13q-11 4 -16 12t-6 17l-6 57
q-2 21 12 25t26 -1q18 -8 42 -13t48.5 -5.5t45.5 4t33 16.5q11 11 15.5 25.5t-1.5 27.5t-24 22t-52 9h-35q-30 0 -30 28v20q0 28 30 28h38q40 0 56.5 13.5t16.5 36.5q0 28 -16.5 41t-45.5 15q-11 1 -23.5 -1t-26.5 -4q-14 -3 -28.5 -6t-28.5 -5q-15 -2 -22 5t-10 17l-7 21
q-3 8 -1 19.5t19 15.5q32 6 65.5 11t66.5 3q28 -2 53.5 -10.5t45.5 -24.5t32.5 -39.5t14.5 -56.5q2 -31 -10.5 -50.5t-34.5 -35.5z" />
    <glyph glyph-name="questiondown" unicode="&#xbf;" horiz-adv-x="601" 
d="M213 733q-21 0 -33 11.5t-12 31.5v102q0 20 12.5 31.5t32.5 11.5h93q20 0 32.5 -11.5t12.5 -31.5v-102q0 -20 -12.5 -31.5t-32.5 -11.5h-93zM299 -5q-112 0 -213 53q-28 15 -28 47v25q0 27 19 35t40 -4q92 -53 162 -53q51 0 76 24t32 63q5 26 -11 54t-61 66l-58 49
q-29 24 -46 46.5t-27 45.5t-13 48t-3 54v58q0 21 12.5 31.5t32.5 10.5h92q20 0 32 -11.5t12 -30.5v-41q0 -29 3 -49.5t13 -40t28 -41t47 -51.5q45 -48 74 -88.5t29 -88.5t-17.5 -87t-49.5 -66.5t-77 -42.5t-100 -15z" />
    <glyph glyph-name="Agrave" unicode="&#xc0;" horiz-adv-x="914" 
d="M414 1054q-21 0 -31 18l-85 151q-8 14 -1 26.5t24 12.5h65q19 0 30 -15l117 -152q11 -14 5 -27.5t-26 -13.5h-98zM698 0q-17 0 -29.5 8.5t-17.5 27.5l-21 92q-3 14 -17 14h-312q-11 0 -14 -3t-4 -8l-17 -95q-4 -20 -17 -28t-30 -8h-120q-25 0 -36 14.5t-2 37.5l319 787
q12 30 47 30h60q35 0 47 -30l318 -787q9 -23 -2.5 -37.5t-34.5 -14.5h-117zM457 638l-112 -325q-4 -13 10 -13h204q14 0 10 13z" />
    <glyph glyph-name="Aacute" unicode="&#xc1;" horiz-adv-x="914" 
d="M578 1074q-11 -18 -31 -18h-98q-20 0 -26 13.5t5 27.5l117 152q10 15 30 15h65q17 0 24 -12.5t-1 -26.5zM698 0q-17 0 -29.5 8.5t-17.5 27.5l-21 92q-3 14 -17 14h-312q-11 0 -14 -3t-4 -8l-17 -95q-4 -20 -17 -28t-30 -8h-120q-25 0 -36 14.5t-2 37.5l319 787
q12 30 47 30h60q35 0 47 -30l318 -787q9 -23 -2.5 -37.5t-34.5 -14.5h-117zM457 638l-112 -325q-4 -13 10 -13h204q14 0 10 13z" />
    <glyph glyph-name="Acircumflex" unicode="&#xc2;" horiz-adv-x="914" 
d="M462 952l-56 -87q-10 -16 -31 -16h-65q-20 0 -26 13t5 28l118 152q10 15 30 15h50q18 0 30 -14l128 -153q12 -15 5 -28t-26 -13h-76q-21 0 -31 16zM698 0q-17 0 -29.5 8.5t-17.5 27.5l-21 91q-3 14 -17 14h-312q-11 0 -14 -3t-4 -7l-17 -96q-3 -19 -16.5 -27t-30.5 -8
h-120q-25 0 -36.5 14.5t-1.5 37.5l319 783q12 30 47 30h60q35 0 47 -30l318 -783q10 -23 -2 -37.5t-35 -14.5h-117zM457 635l-112 -324q-5 -12 10 -12h204q14 0 10 12z" />
    <glyph glyph-name="Atilde" unicode="&#xc3;" horiz-adv-x="914" 
d="M448 1070q-31 41 -48.5 35t-21.5 -44q-2 -11 -9 -19t-21 -8h-32q-15 0 -23 9t-6 23q4 47 22 79t44.5 46.5t58.5 8.5t62 -35l28 -27q18 -18 30.5 -14.5t14.5 46.5q1 12 8.5 20t21.5 8h32q15 0 22.5 -9t6.5 -22q-3 -45 -22 -81t-46 -52.5t-59.5 -10t-62.5 46.5zM698 0
q-17 0 -29.5 8.5t-17.5 27.5l-21 92q-2 8 -5.5 10.5t-11.5 2.5h-312q-11 0 -14 -3t-4 -7l-17 -95q-4 -20 -17 -28t-30 -8h-120q-25 0 -36.5 14.5t-1.5 37.5l319 786q12 30 47 30h60q35 0 47 -30l318 -786q9 -23 -2.5 -37.5t-34.5 -14.5h-117zM457 637l-112 -325
q-5 -12 10 -12h204q14 0 10 12z" />
    <glyph glyph-name="Adieresis" unicode="&#xc4;" horiz-adv-x="914" 
d="M536 907q-30 0 -30 29v74q0 29 30 29h76q30 0 30 -29v-74q0 -29 -30 -29h-76zM311 907q-30 0 -30 29v74q0 29 30 29h77q30 0 30 -29v-74q0 -29 -30 -29h-77zM698 0q-17 0 -29.5 8.5t-17.5 27.5l-21 91q-3 14 -17 14h-312q-11 0 -14 -3t-4 -7l-17 -96q-3 -19 -16.5 -27
t-30.5 -8h-120q-25 0 -36.5 14.5t-1.5 37.5l319 782q12 31 47 31h60q35 0 47 -31l318 -782q10 -23 -2 -37.5t-35 -14.5h-117zM457 635l-112 -324q-4 -13 10 -13h204q14 0 10 13z" />
    <glyph glyph-name="Aring" unicode="&#xc5;" horiz-adv-x="914" 
d="M462 839q-36 0 -67.5 13t-55 35.5t-37 53.5t-13.5 66t13.5 66t37 54t55 36t67.5 13t67.5 -13t55 -36t37 -54t13.5 -66t-13.5 -66t-37 -53.5t-55 -35.5t-67.5 -13zM698 0q-17 0 -29.5 8.5t-17.5 27.5l-21 91q-3 14 -17 14h-312q-11 0 -14 -3t-4 -7l-17 -95q-4 -20 -17 -28
t-30 -8h-120q-25 0 -36.5 14.5t-1.5 37.5l319 785q12 31 47 31h60q35 0 47 -31l318 -785q9 -23 -2.5 -37.5t-34.5 -14.5h-117zM462 1078q-32 0 -52 -20t-20 -51q0 -30 20 -50t52 -20q31 0 51.5 20.5t20.5 49.5t-20.5 50t-51.5 21zM457 637l-112 -325q-4 -13 10 -13h204
q14 0 10 13z" />
    <glyph glyph-name="AE" unicode="&#xc6;" horiz-adv-x="1297" 
d="M698 0q-17 0 -29.5 8.5t-17.5 26.5l-21 91q-3 14 -17 14h-312q-11 0 -14 -3t-4 -7l-17 -95q-3 -19 -16.5 -27t-30.5 -8h-120q-25 0 -36.5 14.5t-1.5 37.5l319 778q12 30 47 30h60q35 0 47 -30l121 -297v285q0 21 12 31.5t32 10.5h486q20 0 32 -10.5t12 -31.5v-20
q0 -19 -12 -30.5t-32 -11.5h-370q-13 0 -13 -13v-212q0 -14 13 -14h353q43 0 43 -42v-38q0 -20 -11.5 -32t-31.5 -12h-353q-8 0 -10.5 -2t-2.5 -10v-140q0 -9 3 -12t10 -3h381q43 0 43 -41v-143q0 -18 -11 -30t-32 -12h-498zM457 631l-112 -322q-5 -12 10 -12h204
q14 0 10 12z" />
    <glyph glyph-name="Ccedilla" unicode="&#xc7;" horiz-adv-x="829" 
d="M423 -17q-96 8 -165 42.5t-113.5 92.5t-65.5 136.5t-21 174.5q0 103 27.5 186t80.5 141.5t131 90t179 31.5q72 0 139.5 -8t127.5 -37q14 -7 22.5 -19.5t4.5 -30.5l-12 -53q-5 -23 -19 -31t-38 6q-51 31 -106.5 42t-118.5 11q-139 0 -203.5 -81.5t-61.5 -246.5
q1 -66 12 -106.5t39.5 -63t80 -30.5t133.5 -8q31 0 65.5 4.5t67 12t60 18.5t44.5 23q7 5 17.5 7.5t20 -0.5t15.5 -12t5 -25l-12 -153q-2 -15 -7.5 -24t-16.5 -19q-42 -36 -98 -52t-117 -20q31 -48 28 -89t-31 -66t-77.5 -30t-111.5 18q-15 5 -18.5 18.5t7.5 25.5l25 27
q16 16 38 7q23 -11 41.5 -12t27 9.5t3.5 33t-29 59.5z" />
    <glyph glyph-name="Egrave" unicode="&#xc8;" horiz-adv-x="700" 
d="M287 1079q-21 0 -31 18l-85 151q-8 14 -1 26.5t24 12.5h65q19 0 30 -15l117 -152q11 -15 5 -28t-26 -13h-98zM102 0q-20 0 -32 11.5t-12 30.5v786q0 20 12 31t32 11h486q20 0 32 -11t12 -31v-21q0 -20 -12 -31.5t-32 -11.5h-370q-8 0 -10.5 -2.5t-2.5 -10.5v-214
q0 -14 13 -14h353q43 0 43 -42v-39q0 -20 -11.5 -32t-31.5 -12h-353q-13 0 -13 -13v-142q0 -14 13 -14h381q43 0 43 -42v-145q0 -18 -11 -30t-32 -12h-497z" />
    <glyph glyph-name="Eacute" unicode="&#xc9;" horiz-adv-x="700" 
d="M451 1099q-11 -18 -31 -18h-98q-20 0 -26 13t5 28l117 152q10 15 30 15h65q17 0 24 -12.5t-1 -26.5zM102 0q-20 0 -32 11.5t-12 30.5v786q0 20 12 31t32 11h486q20 0 32 -11t12 -31v-21q0 -19 -12 -31t-32 -12h-370q-8 0 -10.5 -2t-2.5 -10v-215q0 -14 13 -14h353
q43 0 43 -42v-39q0 -20 -11.5 -32t-31.5 -12h-353q-13 0 -13 -13v-142q0 -14 13 -14h381q43 0 43 -42v-145q0 -18 -11 -30t-32 -12h-497z" />
    <glyph glyph-name="Ecircumflex" unicode="&#xca;" horiz-adv-x="700" 
d="M335 977l-56 -87q-10 -16 -31 -16h-65q-20 0 -26 13t5 28l118 152q10 15 30 15h50q18 0 30 -14l128 -153q12 -15 5 -28t-26 -13h-76q-21 0 -31 16zM102 0q-20 0 -32 11.5t-12 30.5v782q0 20 12 31t32 11h486q20 0 32 -11t12 -31v-20q0 -20 -12 -31.5t-32 -11.5h-370
q-13 0 -13 -13v-213q0 -14 13 -14h353q43 0 43 -42v-39q0 -20 -11.5 -32t-31.5 -12h-353q-13 0 -13 -13v-141q0 -14 13 -14h381q43 0 43 -42v-144q0 -18 -11 -30t-32 -12h-497z" />
    <glyph glyph-name="Edieresis" unicode="&#xcb;" horiz-adv-x="700" 
d="M409 932q-30 0 -30 29v74q0 29 30 29h76q30 0 30 -29v-74q0 -29 -30 -29h-76zM184 932q-30 0 -30 29v74q0 29 30 29h77q30 0 30 -29v-74q0 -29 -30 -29h-77zM102 0q-20 0 -32 11.5t-12 30.5v782q0 20 12 31t32 11h486q20 0 32 -11t12 -31v-21q0 -19 -12 -30.5t-32 -11.5
h-370q-13 0 -13 -13v-213q0 -9 3 -12t10 -3h353q43 0 43 -41v-39q0 -20 -11.5 -32t-31.5 -12h-353q-13 0 -13 -13v-141q0 -14 13 -14h381q43 0 43 -42v-144q0 -18 -11 -30t-32 -12h-497z" />
    <glyph glyph-name="Igrave" unicode="&#xcc;" horiz-adv-x="361" 
d="M140 1093q-21 0 -31 18l-85 151q-8 14 -1 26.5t24 12.5h65q19 0 30 -15l117 -152q11 -15 5 -28t-26 -13h-98zM102 0q-9 0 -18 2.5t-16 8t-9.5 14.5t0.5 22q27 102 47.5 205t28.5 204t0 196.5t-39 182.5q-5 12 -1 20.5t11.5 14t17 8t16.5 2.5h97q20 0 33.5 -12t9.5 -34
q-8 -50 -13 -118.5t-7 -144.5t-1 -155t6 -149.5t13.5 -127.5t21.5 -89q5 -13 2.5 -22.5t-9.5 -15.5t-16.5 -9t-17.5 -3h-157z" />
    <glyph glyph-name="Iacute" unicode="&#xcd;" horiz-adv-x="361" 
d="M304 1113q-11 -18 -31 -18h-98q-20 0 -26 13t5 28l117 152q10 15 30 15h65q17 0 24 -12.5t-1 -26.5zM102 0q-9 0 -18 2.5t-16 8t-9.5 14.5t0.5 22q27 102 47.5 205t28.5 204t0 196.5t-39 182.5q-5 12 -1 20.5t11.5 14t17 8t16.5 2.5h97q20 0 33.5 -12t9.5 -34
q-8 -50 -13 -118.5t-7 -144.5t-1 -155t6 -149.5t13.5 -127.5t21.5 -89q5 -13 2.5 -22.5t-9.5 -15.5t-16.5 -9t-17.5 -3h-157z" />
    <glyph glyph-name="Icircumflex" unicode="&#xce;" horiz-adv-x="361" 
d="M188 991l-56 -87q-10 -16 -31 -16h-65q-20 0 -26 13t5 28l118 152q10 15 30 15h50q18 0 30 -14l128 -153q12 -15 5 -28t-26 -13h-76q-21 0 -31 16zM102 0q-9 0 -18 2.5t-16 8t-9.5 14.5t0.5 21q27 102 47.5 205t29 203.5t0 195.5t-39.5 181q-5 12 -1 20.5t11.5 14t17 8
t16.5 2.5h97q20 0 33.5 -12t9.5 -34q-8 -50 -13 -118t-7 -144t-1 -154.5t6 -148.5t13.5 -126.5t21.5 -88.5q5 -13 2.5 -22.5t-9.5 -15.5t-16.5 -9t-17.5 -3h-157z" />
    <glyph glyph-name="Idieresis" unicode="&#xcf;" horiz-adv-x="361" 
d="M262 946q-30 0 -30 29v74q0 29 30 29h76q30 0 30 -29v-74q0 -29 -30 -29h-76zM37 946q-30 0 -30 29v74q0 29 30 29h77q30 0 30 -29v-74q0 -29 -30 -29h-77zM102 0q-9 0 -18 2.5t-16 8t-9.5 14.5t0.5 21q27 102 47.5 205t29 203.5t0 195.5t-39.5 181q-5 12 -1 20.5
t11.5 14t17 8t16.5 2.5h97q20 0 33.5 -12t9.5 -34q-8 -50 -13 -118t-7 -144t-1 -154.5t6 -148.5t13.5 -126.5t21.5 -88.5q5 -13 2.5 -22.5t-9.5 -15.5t-16.5 -9t-17.5 -3h-157z" />
    <glyph glyph-name="Eth" unicode="&#xd0;" horiz-adv-x="1019" 
d="M251 0q-20 0 -31.5 11.5t-11.5 30.5v335h-120q-30 0 -30 29v38q0 29 30 29h120v345q0 42 43 42h211q105 0 196 -25.5t158.5 -78t106 -133.5t38.5 -192t-39 -192.5t-106.5 -134.5t-158.5 -78.5t-195 -25.5h-211zM374 739q-13 0 -13 -13v-253h197q30 0 30 -29v-38
q0 -29 -30 -29h-197v-138q0 -13 13 -13h112q64 0 123 7t103.5 29t71 62.5t26.5 106.5q0 71 -19 128t-58.5 97t-101 61.5t-145.5 21.5h-112z" />
    <glyph glyph-name="Ntilde" unicode="&#xd1;" horiz-adv-x="820" 
d="M406 978q-32 42 -48 35.5t-22 -44.5q-2 -11 -9 -18.5t-21 -7.5h-32q-15 0 -22.5 9t-6.5 22q4 47 22.5 79t45 46.5t58 8.5t61.5 -35l28 -27q18 -17 30.5 -14t14.5 46q1 12 8.5 20t21.5 8h32q15 0 22.5 -9t6.5 -22q-3 -45 -22 -81t-46.5 -52.5t-59.5 -10t-62 46.5zM601 0
q-32 0 -47 28l-332 612q-5 9 -6 8.5t0 -9.5l41 -595q2 -20 -10.5 -32t-32.5 -12h-113q-21 0 -32.5 12t-10.5 31l33 765q2 42 44 42h94q32 0 47 -28l326 -582q2 -4 4.5 -3.5t2.5 4.5l15 584q1 42 44 42h50q20 0 32 -11t12 -31v-783q0 -19 -12 -30.5t-32 -11.5h-117z" />
    <glyph glyph-name="Ograve" unicode="&#xd2;" horiz-adv-x="932" 
d="M418 1135q-21 0 -31 18l-85 151q-8 14 -1 26.5t24 12.5h65q19 0 30 -15l117 -152q11 -15 5 -28t-26 -13h-98zM466 -14q-86 0 -160 32t-129.5 91t-87 142t-31.5 186q0 102 31.5 185t86.5 142.5t129.5 91.5t160.5 32q85 0 159.5 -32t130 -91.5t87 -142.5t31.5 -185
t-31.5 -185t-87 -142.5t-130 -91.5t-159.5 -32zM466 767q-59 0 -107.5 -22.5t-82.5 -64.5t-52.5 -103.5t-18.5 -139.5q0 -61 17.5 -100.5t51 -63t82 -32.5t110.5 -9t110.5 9t81.5 32.5t50.5 63t17.5 100.5q0 78 -18.5 139.5t-52.5 103.5t-82 64.5t-107 22.5z" />
    <glyph glyph-name="Oacute" unicode="&#xd3;" horiz-adv-x="932" 
d="M582 1155q-11 -18 -31 -18h-98q-20 0 -26 13t5 28l117 152q10 15 30 15h65q17 0 24 -12.5t-1 -26.5zM466 -14q-86 0 -160 32t-129.5 91t-87 142t-31.5 186q0 102 31.5 185t86.5 142.5t129.5 91.5t160.5 32q85 0 159.5 -32t130 -91.5t87 -142.5t31.5 -185t-31.5 -185
t-87 -142.5t-130 -91.5t-159.5 -32zM466 767q-59 0 -107.5 -22.5t-82.5 -64.5t-52.5 -103.5t-18.5 -139.5q0 -61 17.5 -100.5t51 -63t82 -32.5t110.5 -9t110.5 9t81.5 32.5t50.5 63t17.5 100.5q0 78 -18.5 139.5t-52.5 103.5t-82 64.5t-107 22.5z" />
    <glyph glyph-name="Ocircumflex" unicode="&#xd4;" horiz-adv-x="932" 
d="M466 1033l-56 -87q-11 -17 -31 -17h-65q-20 0 -26 13.5t5 27.5l118 153q10 15 30 15h50q18 0 30 -14l128 -153q12 -15 5 -28.5t-26 -13.5h-76q-20 0 -31 17zM466 -14q-86 0 -160 32t-129.5 90.5t-87 141.5t-31.5 185t31.5 185t86.5 142t129.5 91t160.5 32q85 0 159.5 -32
t130 -91t87 -142t31.5 -185t-31.5 -184.5t-87 -141.5t-130 -91t-159.5 -32zM466 764q-59 0 -107.5 -22.5t-82.5 -64.5t-52.5 -103t-18.5 -139q0 -60 17.5 -99.5t51 -63t82 -32.5t110.5 -9t110.5 9t81.5 32.5t50.5 63t17.5 99.5q0 78 -18.5 139t-52.5 103t-82 64.5t-107 22.5
z" />
    <glyph glyph-name="Otilde" unicode="&#xd5;" horiz-adv-x="932" 
d="M452 1150q-31 42 -47.5 36t-22.5 -44q-2 -12 -9 -19.5t-21 -7.5h-32q-15 0 -22.5 9t-6.5 22q4 47 22.5 80t45 47t58 8.5t61.5 -35.5l28 -27q18 -18 30.5 -14.5t14.5 46.5q1 12 8.5 20t21.5 8h32q15 0 22.5 -9t6.5 -22q-3 -45 -22 -81t-46.5 -53t-59.5 -10.5t-62 46.5z
M466 -14q-86 0 -160 32t-129.5 91t-87 142t-31.5 186q0 102 31.5 185t86.5 142t129.5 91t160.5 32q85 0 159.5 -32t130 -91t87 -142t31.5 -185t-31.5 -185t-87 -142.5t-130 -91.5t-159.5 -32zM466 766q-59 0 -107.5 -22.5t-82.5 -64.5t-52.5 -103t-18.5 -139
q0 -61 17.5 -100.5t51 -63t82 -33t110.5 -9.5t110.5 9.5t81.5 33t50.5 63t17.5 100.5q0 78 -18.5 139t-52.5 103t-82 64.5t-107 22.5z" />
    <glyph glyph-name="Odieresis" unicode="&#xd6;" horiz-adv-x="932" 
d="M540 988q-30 0 -30 29v74q0 29 30 29h76q30 0 30 -29v-74q0 -29 -30 -29h-76zM315 988q-30 0 -30 29v74q0 29 30 29h77q30 0 30 -29v-74q0 -29 -30 -29h-77zM466 -14q-86 0 -160 32t-129.5 90.5t-87 141.5t-31.5 185t31.5 184.5t86.5 141.5t129.5 91t160.5 32
q85 0 159.5 -32t130 -91t87 -141.5t31.5 -184.5t-31.5 -184.5t-87 -141.5t-130 -91t-159.5 -32zM466 763q-59 0 -107.5 -22t-82.5 -64t-52.5 -103t-18.5 -139q0 -60 17.5 -99.5t51 -63t82 -32.5t110.5 -9t110.5 9t81.5 32.5t50.5 63t17.5 99.5q0 78 -18.5 139t-52.5 103
t-82 64t-107 22z" />
    <glyph glyph-name="multiply" unicode="&#xd7;" horiz-adv-x="671" 
d="M541 70q-9 -9 -20.5 -9.5t-21.5 8.5l-163 146l-165 -146q-10 -9 -21.5 -8.5t-20.5 9.5l-62 59q-10 9 -9 20.5t9 19.5l154 153l-144 147q-9 10 -8.5 20.5t8.5 18.5l62 60q9 8 20.5 9t21.5 -8l153 -138l159 150q10 9 22 9t22 -9l62 -59q8 -8 8.5 -18.5t-8.5 -20.5
l-149 -159l154 -155q9 -9 9 -20.5t-9 -19.5z" />
    <glyph glyph-name="Oslash" unicode="&#xd8;" horiz-adv-x="932" 
d="M466 -15q-46 0 -88 9l-2 -5q-12 -30 -42 -29l-62 2q-20 1 -31.5 14.5t-2.5 33.5l15 34q-90 55 -142.5 154t-52.5 234q0 101 31.5 183.5t86.5 141t129.5 90.5t160.5 32q79 0 148 -27l20 46q5 13 15.5 20.5t27.5 6.5l24 -1q18 -1 30.5 -13t3.5 -34l-30 -75
q78 -58 123.5 -152t45.5 -218q0 -101 -31.5 -183.5t-87 -141t-130 -90.5t-159.5 -32zM473 229q60 0 107.5 9.5t79.5 33t49 62.5t17 98q0 79 -19 140.5t-54 103.5zM466 759q-59 0 -107.5 -22t-82.5 -64t-52.5 -103t-18.5 -138q0 -44 9 -76t26.5 -54.5t42.5 -37t58 -23.5
l223 500q-44 18 -98 18z" />
    <glyph glyph-name="Ugrave" unicode="&#xd9;" horiz-adv-x="816" 
d="M360 1096q-21 0 -31 18l-85 151q-8 14 -1 26.5t24 12.5h65q19 0 30 -15l117 -152q11 -15 5 -28t-26 -13h-98zM753 333q-2 -172 -87.5 -259.5t-256.5 -87.5q-172 0 -257.5 87.5t-87.5 259.5l-6 497q0 43 43 43h66q21 0 32.5 -12t11.5 -32l-5 -404q-2 -97 46.5 -145.5
t156.5 -48.5q106 0 154.5 48.5t47.5 145.5l-4 404q0 19 10.5 31.5t32.5 12.5h65q21 0 32 -12t11 -31z" />
    <glyph glyph-name="Uacute" unicode="&#xda;" horiz-adv-x="816" 
d="M524 1116q-11 -18 -31 -18h-98q-20 0 -26 13t5 28l117 152q10 15 30 15h65q17 0 24 -12.5t-1 -26.5zM753 333q-2 -172 -87.5 -259.5t-256.5 -87.5q-172 0 -257.5 87.5t-87.5 259.5l-6 497q0 43 43 43h66q21 0 32.5 -12t11.5 -32l-5 -404q-2 -97 46.5 -145.5t156.5 -48.5
q106 0 154.5 48.5t47.5 145.5l-4 404q0 19 10.5 31.5t32.5 12.5h65q21 0 32 -12t11 -31z" />
    <glyph glyph-name="Ucircumflex" unicode="&#xdb;" horiz-adv-x="816" 
d="M408 994l-56 -87q-10 -16 -31 -16h-65q-20 0 -26 13t5 28l118 152q10 15 30 15h50q18 0 30 -14l128 -153q12 -15 5 -28t-26 -13h-76q-21 0 -31 16zM753 332q-2 -172 -87.5 -259t-256.5 -87q-172 0 -257.5 87t-87.5 259l-6 494q0 43 43 43h66q21 0 32.5 -12t11.5 -32
l-5 -402q-2 -96 46.5 -144.5t156.5 -48.5q106 0 154.5 48.5t47.5 144.5l-4 402q0 20 10.5 32t32.5 12h65q21 0 32 -12t11 -31z" />
    <glyph glyph-name="Udieresis" unicode="&#xdc;" horiz-adv-x="816" 
d="M482 949q-30 0 -30 29v74q0 29 30 29h76q30 0 30 -29v-74q0 -29 -30 -29h-76zM257 949q-30 0 -30 29v74q0 29 30 29h77q30 0 30 -29v-74q0 -29 -30 -29h-77zM753 331q-2 -171 -87.5 -258t-256.5 -87q-172 0 -257.5 87t-87.5 258l-6 495q0 43 43 43h66q21 0 32.5 -12
t11.5 -32l-5 -402q-2 -96 46.5 -144.5t156.5 -48.5q106 0 154.5 48.5t47.5 144.5l-4 402q0 19 10.5 31.5t32.5 12.5h65q21 0 32 -12t11 -31z" />
    <glyph glyph-name="Yacute" unicode="&#xdd;" horiz-adv-x="846" 
d="M538 1070q-11 -18 -31 -18h-98q-20 0 -26 13.5t5 27.5l117 152q10 15 30 15h65q17 0 24 -12.5t-1 -26.5zM521 313q-9 -16 -7 -28l24 -242q2 -20 -12 -31.5t-33 -11.5h-146q-19 0 -32.5 10.5t-11.5 32.5l23 242q1 8 -0.5 14t-5.5 14l-256 502q-11 22 -1 38t35 16h65
q31 0 46 -27l209 -374q6 -12 13 0l206 374q15 27 46 27h65q27 0 35.5 -16.5t-2.5 -37.5z" />
    <glyph glyph-name="Thorn" unicode="&#xde;" horiz-adv-x="624" 
d="M169 596q31 29 70.5 40.5t87.5 11.5q54 0 98 -21.5t75.5 -60t48.5 -91.5t17 -117t-17 -117.5t-48.5 -92t-75.5 -60t-98 -21.5q-51 0 -88 6.5t-63 20.5l1 -71q0 -17 -9.5 -28t-29.5 -11h-40q-19 0 -29.5 11.5t-9.5 28.5q6 97 10.5 186t9.5 164q-4 69 -8 156t-11 193
q-1 17 9.5 28.5t29.5 11.5h40q20 0 30.5 -11t8.5 -28zM348 558q-63 0 -100 -45t-37 -139q5 -35 10 -59t18.5 -39t38.5 -21t70 -5q53 1 84.5 25t44.5 90q2 8 2.5 13t-0.5 13q-9 167 -131 167z" />
    <glyph glyph-name="germandbls" unicode="&#xdf;" horiz-adv-x="767" 
d="M347 0q-14 0 -23 9t-6 24l23 113q5 20 25 26q73 24 109 44.5t48 38t5.5 33t-18.5 29.5q-8 9 -18 18t-21 19l-46 38q-21 17 -39 39t-18 47q0 29 13.5 48.5t35.5 35.5q6 5 12.5 9t12.5 9q26 17 44 35.5t18 51.5q0 42 -9 58.5t-35 22.5q-15 4 -37 6t-54 2h-161
q-14 0 -14 -13q5 -111 8.5 -193t6.5 -141.5t5.5 -101t5.5 -71.5t6.5 -52.5t8 -44t11 -46.5t15.5 -59q4 -15 -5 -24.5t-23 -9.5h-132q-21 0 -32 12t-11 30v776q0 42 43 42q107 0 187 -1t138 -7t95.5 -18.5t59.5 -34.5t31 -56t9 -83q0 -38 -16.5 -66t-35.5 -48
q-9 -10 -17.5 -18.5t-15.5 -16.5q-12 -15 -12 -23q0 -14 22 -29q13 -8 29 -16.5t34 -19.5q19 -11 37 -26t32 -35.5t22.5 -48.5t8.5 -66q0 -64 -17 -110t-59 -76t-111.5 -45t-174.5 -16z" />
    <glyph glyph-name="agrave" unicode="&#xe0;" horiz-adv-x="608" 
d="M268 781q-21 0 -31 18l-85 150q-8 14 -1 26.5t24 12.5h65q19 0 30 -15l117 -151q11 -14 5 -27.5t-26 -13.5h-98zM470 0q-17 0 -28.5 9.5t-11.5 27.5v11q-65 -62 -174 -62q-44 0 -80.5 13t-62.5 37t-40.5 57.5t-14.5 75.5q0 100 67 147.5t194 47.5h102q5 0 7 -4t2 -2
q0 54 -33 85.5t-108 35.5q-37 2 -72.5 -6t-68.5 -23q-19 -8 -34.5 -0.5t-15.5 30.5v21q0 29 30 40q45 17 87 24t84 7q251 0 251 -255v-280q0 -37 -39 -37h-41zM314 270q-46 0 -74.5 -4.5t-45 -12.5t-23 -20t-7.5 -28q-1 -7 -0.5 -11.5t2.5 -10.5q8 -22 32 -28.5t72 -6.5
q30 0 51 3.5t34 15.5t19 35t6 61q0 4 -1.5 5.5t-7.5 1.5h-57z" />
    <glyph glyph-name="aacute" unicode="&#xe1;" horiz-adv-x="608" 
d="M432 801q-11 -18 -31 -18h-98q-20 0 -26 13.5t5 27.5l117 151q10 15 30 15h65q17 0 24 -12.5t-1 -26.5zM470 0q-17 0 -28.5 9.5t-11.5 27.5v11q-65 -62 -174 -62q-44 0 -80.5 13t-62.5 37t-40.5 57.5t-14.5 75.5q0 100 67 147.5t194 47.5h102q5 0 7 -4t2 -2
q0 54 -33 85.5t-108 35.5q-37 2 -72.5 -6t-68.5 -23q-19 -8 -34.5 -0.5t-15.5 30.5v21q0 29 30 40q45 17 87 24t84 7q251 0 251 -255v-280q0 -37 -39 -37h-41zM314 271q-46 0 -74.5 -4.5t-45 -13t-23 -20.5t-7.5 -28q-1 -7 -0.5 -11.5t2.5 -10.5q8 -22 32 -28.5t72 -6.5
q30 0 51 3.5t34 15.5t19 35t6 61q0 4 -1.5 6t-7.5 2h-57z" />
    <glyph glyph-name="acircumflex" unicode="&#xe2;" horiz-adv-x="608" 
d="M316 679l-56 -86q-10 -16 -31 -16h-65q-20 0 -26 13t5 27l118 152q11 14 30 14h50q18 0 30 -14l128 -151q13 -15 5.5 -28t-26.5 -13h-76q-21 0 -31 16zM470 -1q-17 0 -28.5 10t-11.5 28v11q-65 -62 -174 -62q-44 0 -80.5 13t-62.5 36.5t-40.5 57t-14.5 74.5
q0 99 67 146.5t194 47.5h102q5 0 7 -4t2 -2q0 54 -33 85.5t-108 35.5q-37 2 -72.5 -6.5t-68.5 -22.5q-19 -8 -34.5 -0.5t-15.5 30.5v20q0 29 30 40q45 15 87 23t84 8q251 0 251 -253v-278q0 -17 -10 -27.5t-29 -10.5h-41zM314 268q-46 0 -74.5 -4.5t-45 -12.5t-23 -20
t-7.5 -28q-1 -6 -0.5 -10.5t2.5 -10.5q8 -23 32 -29t72 -6q30 0 51 3.5t34 15.5t19 34.5t6 60.5q0 4 -1.5 5.5t-7.5 1.5h-57z" />
    <glyph glyph-name="atilde" unicode="&#xe3;" horiz-adv-x="608" 
d="M302 796q-31 42 -47.5 36t-22.5 -44q-2 -11 -9 -19t-21 -8h-32q-15 0 -22.5 9t-6.5 22q4 47 22.5 79t44.5 46t57.5 8.5t62.5 -34.5l28 -26q20 -18 31.5 -14.5t13.5 45.5q1 12 8.5 20t21.5 8h32q15 0 22.5 -9t6.5 -22q-3 -45 -22 -80.5t-46.5 -52.5t-59.5 -10.5t-62 46.5z
M470 0q-17 0 -28.5 9.5t-11.5 27.5v11q-65 -62 -174 -62q-44 0 -80.5 13t-62.5 37t-40.5 57.5t-14.5 74.5q0 100 67 147.5t194 47.5h102q5 0 7 -4t2 -2q0 54 -33 85.5t-108 35.5q-37 2 -72.5 -6t-68.5 -22q-19 -8 -34.5 -0.5t-15.5 29.5v21q0 29 30 40q45 17 87 24t84 7
q251 0 251 -255v-279q0 -37 -39 -37h-41zM314 270q-46 0 -74.5 -4.5t-45 -12.5t-23 -20t-7.5 -28q-1 -7 -0.5 -11.5t2.5 -10.5q8 -23 32 -29t72 -6q30 0 51 3.5t34 15.5t19 34.5t6 60.5q0 5 -1.5 6.5t-7.5 1.5h-57z" />
    <glyph glyph-name="adieresis" unicode="&#xe4;" horiz-adv-x="608" 
d="M390 634q-30 0 -30 29v73q0 29 30 29h76q30 0 30 -29v-73q0 -29 -30 -29h-76zM165 634q-30 0 -30 29v73q0 29 30 29h77q30 0 30 -29v-73q0 -29 -30 -29h-77zM470 -1q-17 0 -28.5 10t-11.5 28v11q-65 -62 -174 -62q-44 0 -80.5 13t-62.5 36.5t-40.5 57t-14.5 74.5
q0 99 67 146.5t194 47.5h102q5 0 7 -4t2 -2q0 54 -33 85t-108 35q-37 2 -72.5 -6t-68.5 -22q-19 -8 -34.5 -0.5t-15.5 29.5v20q0 30 30 41q89 31 171 31q251 0 251 -254v-277q0 -17 -10 -27.5t-29 -10.5h-41zM314 268q-46 0 -74.5 -4.5t-45 -12.5t-23 -20t-7.5 -28
q-2 -15 2 -21q8 -23 32 -29t72 -6q30 0 51 3.5t34 15.5t19 34.5t6 60.5q0 4 -1.5 5.5t-7.5 1.5h-57z" />
    <glyph glyph-name="aring" unicode="&#xe5;" horiz-adv-x="608" 
d="M316 567q-36 0 -67.5 13t-55 35.5t-37 53t-13.5 65.5t13.5 66t37 53.5t55 35.5t67.5 13t67.5 -13t55 -35.5t37 -53.5t13.5 -66t-13.5 -65.5t-37 -53t-55 -35.5t-67.5 -13zM470 0q-17 0 -28.5 9.5t-11.5 27.5v11q-65 -62 -174 -62q-44 0 -80.5 13t-62.5 37t-40.5 57.5
t-14.5 74.5q0 100 67 147.5t194 47.5h102q5 0 7 -4t2 -2q0 54 -33 85.5t-108 35.5q-37 2 -72.5 -6.5t-68.5 -22.5q-19 -8 -34.5 -0.5t-15.5 30.5v20q0 30 30 41q89 31 171 31q251 0 251 -255v-279q0 -37 -39 -37h-41zM316 804q-32 0 -52 -19.5t-20 -50.5q0 -30 20 -49.5
t52 -19.5q31 0 51.5 20t20.5 49t-20.5 49.5t-51.5 20.5zM314 270q-46 0 -74.5 -4.5t-45 -12.5t-23 -20.5t-7.5 -27.5q-1 -7 -0.5 -11.5t2.5 -10.5q8 -23 32 -29t72 -6q30 0 51 3.5t34 15.5t19 34.5t6 60.5q0 5 -1.5 6.5t-7.5 1.5h-57z" />
    <glyph glyph-name="ae" unicode="&#xe6;" horiz-adv-x="1010" 
d="M552 27q-4 -28 -38 -28h-41q-17 0 -28.5 9.5t-11.5 27.5v11q-64 -61 -174 -61q-44 0 -80.5 12.5t-62.5 36t-40.5 56.5t-14.5 74q0 97 67 144t194 47h102q5 0 7 -4t2 -2q0 54 -33 84.5t-108 34.5q-37 2 -72.5 -6t-68.5 -22q-19 -8 -34.5 -0.5t-15.5 29.5v20q0 29 30 40
q88 30 171 30q73 0 125.5 -21t83.5 -66q35 42 86.5 64.5t117.5 22.5q44 0 86.5 -16t76 -46.5t54 -76t20.5 -104.5v-9q0 -17 -10.5 -27.5t-28.5 -10.5h-337q-5 0 -7 -1.5t-2 -7.5q0 -37 7.5 -59.5t26 -35t49.5 -17t79 -4.5q45 0 91 2.5t75 8.5q16 4 31.5 -2t15.5 -29l1 -69
q0 -28 -26 -40q-23 -11 -43.5 -17t-43 -9t-47.5 -3.5t-57 -0.5q-54 0 -97 11t-77 30zM715 484q-62 0 -101.5 -31t-45.5 -76q-1 -6 1 -7.5t7 -1.5l269 1q5 0 6.5 1t-0.5 8q-9 48 -45.5 77t-90.5 29zM317 264q-46 0 -74.5 -4t-45 -12t-23 -20t-7.5 -28q-1 -6 -0.5 -10.5
t2.5 -10.5q8 -22 32 -28t72 -6q30 0 51 3.5t34 15t19 33.5t6 60q0 4 -1.5 5.5t-7.5 1.5h-57z" />
    <glyph glyph-name="ccedilla" unicode="&#xe7;" horiz-adv-x="579" 
d="M471 438q-56 25 -119 25q-81 0 -122.5 -49.5t-41.5 -143.5q6 -62 42 -95t119 -36q29 -1 59.5 7t62.5 19q19 6 33.5 -1.5t14.5 -29.5l1 -87q0 -31 -28 -41q-46 -18 -98 -24q31 -48 29 -88.5t-30 -65.5t-77 -30.5t-112 17.5q-15 5 -18.5 18.5t7.5 25.5l25 26q17 17 38 7
q23 -10 41.5 -11t27 8.5t3.5 31.5t-29 59l-2 2q-56 7 -100 30t-75 60t-47.5 87t-16.5 110q0 67 20 121t57.5 91.5t91 58t121.5 20.5q78 0 144 -25q29 -11 29 -40v-27q0 -23 -15.5 -30.5t-34.5 0.5z" />
    <glyph glyph-name="egrave" unicode="&#xe8;" horiz-adv-x="630" 
d="M275 781q-21 0 -31 18l-85 150q-8 14 -1 26.5t24 12.5h65q19 0 30 -15l117 -151q11 -14 5 -27.5t-26 -13.5h-98zM196 276q-5 0 -7 -1.5t-2 -7.5q0 -38 7.5 -61t26 -36t49.5 -17.5t79 -4.5q45 0 91 2t75 9q16 4 31.5 -2t15.5 -29l1 -71q0 -28 -26 -40q-23 -11 -43.5 -17.5
t-42.5 -9.5t-47.5 -4t-57.5 0q-293 7 -288 278q1 67 20 124t54.5 97.5t86 63.5t116.5 23q44 0 86.5 -16t76 -47.5t54 -78t20.5 -106.5v-9q0 -17 -10.5 -28t-28.5 -11h-337zM335 495q-31 0 -56.5 -9t-44.5 -24t-31 -35t-15 -42q-2 -9 8 -9l269 1q5 0 6.5 1.5t-0.5 7.5
q-9 51 -45.5 80t-90.5 29z" />
    <glyph glyph-name="eacute" unicode="&#xe9;" horiz-adv-x="630" 
d="M439 801q-11 -18 -31 -18h-98q-20 0 -26 13.5t5 27.5l117 151q10 15 30 15h65q17 0 24 -12.5t-1 -26.5zM196 276q-5 0 -7 -1.5t-2 -7.5q0 -38 7.5 -61t26 -36t49.5 -17.5t79 -4.5q45 0 91 2t75 9q16 4 31.5 -2t15.5 -29l1 -71q0 -28 -26 -40q-23 -11 -43.5 -17.5
t-42.5 -9.5t-47.5 -4t-57.5 0q-148 4 -219 74t-69 204q1 67 20 124t54.5 97.5t86 63.5t116.5 23q44 0 86.5 -16t76 -47.5t54 -78t20.5 -106.5v-9q0 -17 -10.5 -28t-28.5 -11h-337zM335 495q-31 0 -56.5 -9t-44.5 -24t-31 -35t-15 -42q-2 -9 8 -9l269 1q5 0 6.5 1.5t-0.5 7.5
q-9 51 -45.5 80t-90.5 29z" />
    <glyph glyph-name="ecircumflex" unicode="&#xea;" horiz-adv-x="630" 
d="M323 679l-56 -86q-10 -16 -31 -16h-65q-20 0 -26 13t5 27l118 152q11 14 30 14h50q18 0 30 -14l128 -151q13 -15 5.5 -28t-26.5 -13h-76q-21 0 -31 16zM196 274q-5 0 -7 -1.5t-2 -7.5q0 -37 7.5 -60t26 -36t49.5 -17.5t79 -4.5q45 0 91 2t75 9q16 4 31.5 -2t15.5 -29
l1 -70q0 -15 -6.5 -24.5t-19.5 -16.5q-23 -11 -43.5 -17.5t-42.5 -9.5t-47.5 -3.5t-57.5 0.5q-148 4 -219 73.5t-69 202.5q1 67 20 123t54.5 96.5t86 63.5t116.5 23q44 0 86.5 -16t76 -47.5t54 -77.5t20.5 -106v-8q0 -17 -10.5 -28t-28.5 -11h-337zM335 491
q-31 0 -56.5 -8.5t-44.5 -23.5t-31 -35t-15 -42q-2 -9 8 -9l269 1q5 0 6.5 1.5t-0.5 7.5q-9 51 -45.5 79.5t-90.5 28.5z" />
    <glyph glyph-name="edieresis" unicode="&#xeb;" horiz-adv-x="630" 
d="M397 634q-30 0 -30 29v73q0 29 30 29h76q30 0 30 -29v-73q0 -29 -30 -29h-76zM172 634q-30 0 -30 29v73q0 29 30 29h77q30 0 30 -29v-73q0 -29 -30 -29h-77zM196 274q-9 0 -9 -10q0 -37 7.5 -60t26 -35.5t49.5 -17t79 -4.5q45 0 91 2t75 9q16 4 31.5 -2t15.5 -29l1 -71
q0 -26 -26 -40q-23 -11 -43.5 -17.5t-42.5 -9.5t-47.5 -3.5t-57.5 0.5q-148 4 -219 73.5t-69 202.5q1 67 20 123t54.5 96.5t86 63.5t116.5 23q44 0 86.5 -16t76 -47.5t54 -77.5t20.5 -106v-9q0 -17 -10.5 -27.5t-28.5 -10.5h-337zM335 491q-31 0 -56.5 -8.5t-44.5 -23.5
t-31 -35t-15 -42q-2 -9 8 -9l269 1q5 0 6.5 1.5t-0.5 7.5q-9 49 -45.5 78.5t-90.5 29.5z" />
    <glyph glyph-name="igrave" unicode="&#xec;" horiz-adv-x="364" 
d="M179 638q-21 0 -31 18l-85 149q-8 14 -1 26.5t24 12.5h65q19 0 30 -14l117 -151q11 -14 5 -27.5t-26 -13.5h-98zM174 -5q-18 0 -30 10t-9 31q9 60 16.5 114.5t12 111t5.5 118.5t-3 136q-1 17 11 26.5t29 9.5h42q18 0 29.5 -10t9.5 -30q-6 -54 -9.5 -117t-2 -126t8 -123
t20.5 -108q6 -22 -7 -32.5t-30 -10.5h-93z" />
    <glyph glyph-name="iacute" unicode="&#xed;" horiz-adv-x="363" 
d="M215 645q-11 -18 -31 -18h-98q-20 0 -26 13.5t5 27.5l117 151q11 14 30 14h65q17 0 24 -12.5t-1 -26.5zM112 -5q-18 0 -30 10t-9 31q9 60 16.5 114.5t12 111t5.5 118.5t-3 136q-1 17 11 26.5t29 9.5h42q18 0 29.5 -10.5t9.5 -29.5q-6 -54 -9.5 -117t-2 -126t8 -123
t20.5 -108q6 -22 -7 -32.5t-30 -10.5h-93z" />
    <glyph glyph-name="icircumflex" unicode="&#xee;" horiz-adv-x="486" 
d="M238 696l-56 -86q-10 -16 -31 -16h-65q-20 0 -26 13t5 27l118 152q11 14 30 14h50q18 0 30 -14l128 -151q13 -15 5.5 -28t-26.5 -13h-76q-21 0 -31 16zM183 -5q-18 0 -30 10t-9 31q9 60 16.5 114.5t12 111t5.5 118t-3 135.5q-1 17 11 26.5t29 9.5h42q18 0 29.5 -10
t9.5 -30q-6 -55 -9.5 -117.5t-2 -125.5t8 -122.5t20.5 -107.5q6 -22 -7 -32.5t-30 -10.5h-93z" />
    <glyph glyph-name="idieresis" unicode="&#xef;" horiz-adv-x="477" 
d="M313 614q-30 0 -30 29v73q0 29 30 29h76q30 0 30 -29v-73q0 -29 -30 -29h-76zM88 614q-30 0 -30 29v73q0 29 30 29h77q30 0 30 -29v-73q0 -29 -30 -29h-77zM187 -5q-18 0 -30 10t-9 31q9 59 16.5 113.5t12 111t5.5 118t-3 134.5q-1 17 11 27t29 10h42q18 0 29.5 -10.5
t9.5 -29.5q-6 -54 -9.5 -117t-2 -126t8 -122t20.5 -107q6 -22 -7 -32.5t-30 -10.5h-93z" />
    <glyph glyph-name="eth" unicode="&#xf0;" horiz-adv-x="648" 
d="M324 -14q-60 0 -109 20.5t-84 57.5t-54 88.5t-19 113.5q0 61 18.5 112t52.5 88t81.5 57.5t105.5 20.5h18l-46 49l-160 -52l-26 74l130 41l-95 104h151l60 -66l167 53l26 -72l-137 -44l65 -71q63 -69 92 -139t29 -155q0 -62 -19 -113.5t-54 -88.5t-84 -57.5t-109 -20.5z
M418 432q-40 13 -78 13q-75 0 -116 -45.5t-41 -133.5q0 -39 9 -61t26.5 -32.5t44 -13t61.5 -2.5t61.5 2.5t44 13t26.5 32.5t9 61q0 55 -12 95.5t-35 70.5z" />
    <glyph glyph-name="ntilde" unicode="&#xf1;" horiz-adv-x="656" 
d="M296 796q-31 42 -47.5 36t-22.5 -44q-2 -11 -9 -19t-21 -8h-32q-15 0 -22.5 9.5t-6.5 21.5q4 47 22.5 79t44.5 46t57.5 8.5t62.5 -34.5l28 -26q20 -18 31.5 -14.5t13.5 45.5q1 12 8.5 20t21.5 8h32q15 0 22.5 -9t6.5 -22q-3 -45 -22 -80.5t-46.5 -52.5t-59.5 -10.5
t-62 46.5zM461 0q-20 0 -30 11t-9 29l18 297q5 72 -20 103.5t-76 31.5q-76 0 -114.5 -40t-32.5 -112l24 -280q2 -19 -9.5 -29.5t-29.5 -10.5h-85q-19 0 -29.5 11t-9.5 28l13 487q1 17 11.5 27.5t28.5 10.5h42q19 0 29 -11t10 -28v-4q0 -6 5 -3q30 21 69.5 37t87.5 16
q102 0 150.5 -62t60.5 -173l33 -296q2 -19 -9 -29.5t-30 -10.5h-98z" />
    <glyph glyph-name="ograve" unicode="&#xf2;" horiz-adv-x="648" 
d="M276 781q-21 0 -31 18l-85 150q-8 14 -1 26.5t24 12.5h65q19 0 30 -15l117 -151q11 -14 5 -27.5t-26 -13.5h-98zM324 -14q-63 0 -112 20.5t-83.5 58.5t-52.5 92t-18 122q0 67 18 121.5t52.5 92.5t83.5 58.5t112 20.5q62 0 111.5 -20.5t84 -58.5t52.5 -92.5t18 -121.5
q0 -68 -18 -122t-52.5 -92t-84 -58.5t-111.5 -20.5zM324 479q-63 0 -102 -46.5t-39 -137.5q0 -42 9 -67.5t27 -39t44 -18t61 -4.5q34 0 60.5 4.5t44.5 18t27 39t9 67.5q0 88 -39 136t-102 48z" />
    <glyph glyph-name="oacute" unicode="&#xf3;" horiz-adv-x="648" 
d="M440 801q-11 -18 -31 -18h-98q-20 0 -26 13.5t5 27.5l117 151q10 15 30 15h65q17 0 24 -12.5t-1 -26.5zM324 -14q-63 0 -112 20.5t-83.5 58.5t-52.5 92t-18 122q0 67 18 121.5t52.5 92.5t83.5 58.5t112 20.5q62 0 111.5 -20.5t84 -58.5t52.5 -92.5t18 -121.5
q0 -68 -18 -122t-52.5 -92t-84 -58.5t-111.5 -20.5zM324 479q-63 0 -102 -46.5t-39 -137.5q0 -42 9 -67.5t27 -39t44 -18t61 -4.5q34 0 60.5 4.5t44.5 18t27 39t9 67.5q0 88 -39 136t-102 48z" />
    <glyph glyph-name="ocircumflex" unicode="&#xf4;" horiz-adv-x="648" 
d="M324 679l-56 -86q-10 -16 -31 -16h-65q-20 0 -26 13t5 27l118 152q11 14 30 14h50q18 0 30 -14l128 -151q13 -15 5.5 -28t-26.5 -13h-76q-21 0 -31 16zM324 -14q-63 0 -112 20.5t-83.5 58t-52.5 91.5t-18 121t18 121t52.5 92t83.5 58t112 20q62 0 111.5 -20t84 -58
t52.5 -92t18 -121t-18 -121t-52.5 -91.5t-84 -58t-111.5 -20.5zM324 476q-63 0 -102 -46.5t-39 -137.5q0 -42 9 -67.5t27 -39t44 -17.5t61 -4q34 0 60.5 4.5t44.5 18t27 38.5t9 67q0 88 -39 136t-102 48z" />
    <glyph glyph-name="otilde" unicode="&#xf5;" horiz-adv-x="648" 
d="M310 796q-31 42 -47.5 36t-22.5 -44q-2 -11 -9 -19t-21 -8h-32q-15 0 -22.5 9t-6.5 22q4 47 22.5 79t44.5 46t57.5 8.5t62.5 -34.5l28 -26q20 -18 31.5 -14.5t13.5 45.5q1 12 8.5 20t21.5 8h32q15 0 22.5 -9t6.5 -22q-3 -45 -22 -80.5t-46.5 -52.5t-59.5 -10.5t-62 46.5z
M324 -14q-63 0 -112 20.5t-83.5 58.5t-52.5 92t-18 122q0 67 18 121.5t52.5 92t83.5 58t112 20.5q62 0 111.5 -20.5t84 -58t52.5 -92t18 -121.5q0 -68 -18 -122t-52.5 -92t-84 -58.5t-111.5 -20.5zM324 478q-63 0 -102 -46.5t-39 -137.5q0 -42 9 -67.5t27 -39t44 -18
t61 -4.5q34 0 60.5 4.5t44.5 18t27 39t9 67.5q0 88 -39 136t-102 48z" />
    <glyph glyph-name="odieresis" unicode="&#xf6;" horiz-adv-x="648" 
d="M398 634q-30 0 -30 29v73q0 29 30 29h76q30 0 30 -29v-73q0 -29 -30 -29h-76zM173 634q-30 0 -30 29v73q0 29 30 29h77q30 0 30 -29v-73q0 -29 -30 -29h-77zM324 -14q-63 0 -112 20.5t-83.5 58t-52.5 91.5t-18 121t18 121t52.5 91.5t83.5 58t112 20.5q62 0 111.5 -20.5
t84 -58t52.5 -91.5t18 -121t-18 -121t-52.5 -91.5t-84 -58t-111.5 -20.5zM324 475q-63 0 -102 -46.5t-39 -136.5q0 -42 9 -67.5t27 -39t44 -17.5t61 -4q34 0 60.5 4.5t44.5 18t27 38.5t9 67q0 88 -39 135.5t-102 47.5z" />
    <glyph glyph-name="divide" unicode="&#xf7;" horiz-adv-x="797" 
d="M332 413q-19 0 -29.5 10.5t-10.5 28.5v90q0 17 10 28t30 11h93q20 0 30 -11t10 -28v-90q0 -17 -10 -28t-30 -11h-93zM88 256q-30 0 -30 29v59q0 28 30 28h596q30 0 30 -28v-59q0 -29 -30 -29h-596zM333 16q-18 0 -29 10.5t-11 27.5v101q0 38 40 38h92q40 0 40 -38v-101
q0 -17 -10 -27.5t-30 -10.5h-92z" />
    <glyph glyph-name="oslash" unicode="&#xf8;" horiz-adv-x="648" 
d="M324 -20q-10 0 -18.5 0.5t-17.5 1.5l-68 -167q-13 -30 -42 -29l-62 2q-20 1 -31.5 14.5t-2.5 33.5l84 189q-54 38 -81 100.5t-27 147.5q0 67 18 121.5t52.5 92.5t83.5 58.5t112 20.5q46 0 80 -10l74 168q6 13 16 20.5t27 6.5l24 -1q18 -1 30.5 -13t3.5 -34l-79 -197
q90 -78 90 -233q0 -68 -18 -122t-52.5 -92t-84 -58.5t-111.5 -20.5zM359 160q25 2 45 8.5t33.5 21t20.5 38.5t7 60q0 57 -16 95zM324 473q-63 0 -102 -47t-39 -138q0 -53 13.5 -78.5t36.5 -36.5l131 294q-18 6 -40 6z" />
    <glyph glyph-name="ugrave" unicode="&#xf9;" horiz-adv-x="596" 
d="M241 781q-21 0 -31 18l-85 150q-8 14 -1 26.5t24 12.5h65q19 0 30 -15l117 -151q11 -14 5 -27.5t-26 -13.5h-98zM461 0q-20 -1 -29 10.5t-9 27.5v13q-63 -65 -158 -65q-103 0 -155 61.5t-52 176.5v297q0 18 10 28.5t29 10.5h37q18 0 29 -10t10 -30l-9 -227
q-2 -53 4 -82.5t19.5 -43.5t34 -16.5t47.5 -2.5q33 0 59.5 6.5t45 24t28 47t9.5 75.5l-1 221q0 19 11.5 28.5t28.5 9.5l48 1q17 0 28 -10t11 -28l1 -484q0 -18 -11 -27.5t-29 -10.5z" />
    <glyph glyph-name="uacute" unicode="&#xfa;" horiz-adv-x="596" 
d="M405 801q-11 -18 -31 -18h-98q-20 0 -26 13.5t5 27.5l117 151q10 15 30 15h65q17 0 24 -12.5t-1 -26.5zM461 0q-20 -1 -29 10.5t-9 27.5v13q-63 -65 -158 -65q-103 0 -155 61.5t-52 176.5v297q0 18 10 28.5t29 10.5h37q18 0 29 -10t10 -30l-9 -227q-2 -53 4 -82.5
t19.5 -43.5t34 -16.5t47.5 -2.5q33 0 59.5 7t45 24t28 47t9.5 76l-1 220q0 19 11.5 28.5t28.5 9.5l48 1q17 0 28 -10t11 -28l1 -484q0 -18 -11 -27.5t-29 -10.5z" />
    <glyph glyph-name="ucircumflex" unicode="&#xfb;" horiz-adv-x="596" 
d="M289 679l-56 -86q-10 -16 -31 -16h-65q-20 0 -26 13t5 27l118 152q11 14 30 14h50q18 0 30 -14l128 -151q13 -15 5.5 -28t-26.5 -13h-76q-21 0 -31 16zM461 -1q-20 -1 -29 11t-9 28v13q-63 -65 -158 -65q-103 0 -155 60.5t-52 175.5v295q0 18 10 28.5t29 10.5h37
q18 0 29 -10.5t10 -29.5l-9 -225q-2 -53 4 -82.5t19.5 -43t34 -16t47.5 -2.5q33 0 59.5 6.5t45 24t28 47t9.5 74.5l-1 219q0 19 11.5 28.5t28.5 9.5l48 1q17 0 28 -10.5t11 -27.5l1 -480q0 -18 -11 -28t-29 -11z" />
    <glyph glyph-name="udieresis" unicode="&#xfc;" horiz-adv-x="596" 
d="M363 634q-30 0 -30 29v73q0 29 30 29h76q30 0 30 -29v-73q0 -29 -30 -29h-76zM138 634q-30 0 -30 29v73q0 29 30 29h77q30 0 30 -29v-73q0 -29 -30 -29h-77zM461 -1q-20 -1 -29 11t-9 28v13q-63 -65 -158 -65q-103 0 -155 60.5t-52 175.5v295q0 17 10 27.5t29 10.5h37
q18 0 29 -10t10 -29l-9 -225q-2 -53 4 -82.5t19.5 -43t34 -16t47.5 -2.5q33 0 59.5 6.5t45 23.5t28 46.5t9.5 75.5l-1 218q0 19 11.5 28.5t28.5 9.5l48 1q17 0 28 -10t11 -27l1 -480q0 -18 -11 -28t-29 -11z" />
    <glyph glyph-name="yacute" unicode="&#xfd;" horiz-adv-x="686" 
d="M468 800q-11 -18 -31 -18h-98q-20 0 -26 13t5 28l117 152q10 15 30 15h65q17 0 24 -12.5t-1 -26.5zM406 -45q-29 -74 -59.5 -121t-62 -74t-64 -37t-66.5 -10h-57q-18 0 -28.5 10t-10.5 28v73q0 17 10 27.5t29 10.5h38q22 0 46 16t46.5 41.5t41.5 57.5t30 64q4 11 0 21
l-213 446q-10 20 0.5 34.5t32.5 14.5h44q27 0 42 -23l165 -265q5 -7 7 0l125 262q12 26 42 26h47q20 0 31 -13.5t3 -33.5z" />
    <glyph glyph-name="thorn" unicode="&#xfe;" horiz-adv-x="636" 
d="M169 515q31 30 70.5 41.5t87.5 11.5q54 0 98 -21.5t75.5 -60.5t48.5 -93t17 -118q0 -65 -17 -118.5t-48.5 -92.5t-75.5 -60.5t-98 -21.5q-103 0 -155 29l5 -143q1 -17 -9 -28t-30 -11h-40q-19 0 -29.5 11.5t-9.5 29.5q6 97 10 187.5t8 168.5q-5 54 -8.5 124.5t-6.5 149
t-6.5 160.5t-7.5 159q-1 18 9.5 29.5t29.5 11.5h50q20 0 30 -11t9 -28zM338 467q-63 0 -100 -45.5t-37 -139.5q5 -36 10 -60.5t18.5 -39.5t38.5 -21t70 -5q39 1 65 13.5t41 32t20.5 45t4.5 53.5q-3 84 -37 125.5t-94 41.5z" />
    <glyph glyph-name="ydieresis" unicode="&#xff;" horiz-adv-x="686" 
d="M426 633q-30 0 -30 29v74q0 29 30 29h76q30 0 30 -29v-74q0 -29 -30 -29h-76zM201 633q-30 0 -30 29v74q0 29 30 29h77q30 0 30 -29v-74q0 -29 -30 -29h-77zM406 -46q-29 -74 -59.5 -121t-62 -73.5t-64 -36.5t-66.5 -10h-57q-18 0 -28.5 10t-10.5 28v73q0 17 10 27.5
t29 10.5h38q21 0 45.5 15.5t47 41t41.5 57t30 63.5q4 12 0 22l-213 443q-10 20 0.5 34.5t32.5 14.5h44q27 0 42 -23l165 -264q5 -7 7 1l125 260q12 26 42 26h47q20 0 31 -13.5t3 -33.5z" />
    <glyph glyph-name="Amacron" unicode="&#x100;" horiz-adv-x="914" 
d="M315 866q-30 0 -30 29v69q0 29 30 29h289q30 0 30 -29v-69q0 -29 -30 -29h-289zM698 0q-17 0 -29.5 8.5t-17.5 27.5l-21 91q-3 14 -17 14h-312q-11 0 -14 -3t-4 -8l-17 -95q-3 -19 -16.5 -27t-30.5 -8h-120q-25 0 -36.5 14.5t-1.5 37.5l319 781q12 31 47 31h60
q35 0 47 -31l318 -781q10 -23 -2 -37.5t-35 -14.5h-117zM457 634l-112 -323q-4 -13 10 -13h204q14 0 10 13z" />
    <glyph glyph-name="amacron" unicode="&#x101;" horiz-adv-x="608" 
d="M169 593q-30 0 -30 29v68q0 29 30 29h289q30 0 30 -29v-68q0 -29 -30 -29h-289zM470 -1q-17 0 -28.5 10t-11.5 28v10q-64 -61 -174 -61q-44 0 -80.5 13t-62.5 36.5t-40.5 57t-14.5 74.5q0 97 67 145t194 48h102q5 0 7 -4t2 -2q0 54 -33 85t-108 35q-37 2 -72.5 -6.5
t-68.5 -22.5q-19 -8 -34.5 -0.5t-15.5 30.5v20q0 30 30 41q45 16 87 23t84 7q251 0 251 -252v-277q0 -17 -10 -27.5t-29 -10.5h-41zM314 267q-46 0 -74.5 -4t-45 -12.5t-23 -20.5t-7.5 -27q-1 -7 -0.5 -11.5t2.5 -10.5q8 -22 32 -28.5t72 -6.5q30 0 51 3.5t34 15.5t19 34.5
t6 60.5q0 4 -1.5 5.5t-7.5 1.5h-57z" />
    <glyph glyph-name="Abreve" unicode="&#x102;" horiz-adv-x="914" 
d="M462 869q-72 0 -119.5 34t-57.5 109q-2 15 7 23.5t23 8.5h38q13 0 21 -7t10 -16q7 -23 25 -35.5t53 -12.5q34 0 52 12.5t26 35.5t31 23h38q14 0 23 -8.5t7 -23.5q-10 -75 -57.5 -109t-119.5 -34zM698 0q-17 0 -29.5 8.5t-17.5 27.5l-21 91q-3 14 -17 14h-312
q-11 0 -14 -3t-4 -7l-17 -96q-3 -19 -16.5 -27t-30.5 -8h-120q-25 0 -36.5 14.5t-1.5 37.5l319 783q12 30 47 30h60q35 0 47 -30l318 -783q10 -23 -2 -37.5t-35 -14.5h-117zM457 635l-112 -324q-4 -13 10 -13h204q14 0 10 13z" />
    <glyph glyph-name="abreve" unicode="&#x103;" horiz-adv-x="608" 
d="M316 597q-72 0 -119.5 34t-57.5 107q-2 15 7 23.5t23 8.5h38q13 0 20.5 -6.5t10.5 -16.5q6 -23 24.5 -35t53.5 -12q34 0 52 12t26 35t31 23h38q14 0 23 -8.5t7 -23.5q-10 -73 -57.5 -107t-119.5 -34zM470 -1q-17 0 -28.5 10t-11.5 28v11q-65 -62 -174 -62q-44 0 -80.5 13
t-62.5 36.5t-40.5 57t-14.5 74.5q0 99 67 146.5t194 47.5h102q5 0 7 -4t2 -2q0 54 -33 85t-108 35q-37 2 -72.5 -6t-68.5 -22q-19 -8 -34.5 -0.5t-15.5 29.5v20q0 30 30 41q89 31 171 31q251 0 251 -254v-277q0 -17 -10 -27.5t-29 -10.5h-41zM314 268q-46 0 -74.5 -4.5
t-45 -12.5t-23 -20t-7.5 -28q-2 -15 2 -21q8 -23 32 -29t72 -6q30 0 51 3.5t34 15.5t19 34.5t6 60.5q0 4 -1.5 5.5t-7.5 1.5h-57z" />
    <glyph glyph-name="Aogonek" unicode="&#x104;" horiz-adv-x="914" 
d="M698 -6q-17 0 -29.5 8.5t-17.5 27.5l-21 92q-2 8 -5.5 10.5t-11.5 2.5h-312q-11 0 -14 -3t-4 -7l-17 -95q-4 -20 -17 -28t-30 -8h-120q-25 0 -36 15t-2 37l319 783q12 31 47 31h60q35 0 47 -31l318 -783q9 -22 -2.5 -37t-34.5 -15h-117zM793 -185q-67 -25 -118.5 -17.5
t-78 37t-22.5 76t47 98.5q12 15 30 15h26q20 0 25.5 -13.5t-3.5 -27.5q-24 -37 -29.5 -59.5t3 -33t27 -9.5t41.5 12q22 9 38 -7l25 -27q11 -12 7.5 -25t-18.5 -19zM457 630l-112 -324q-4 -13 10 -13h204q14 0 10 13z" />
    <glyph glyph-name="aogonek" unicode="&#x105;" horiz-adv-x="608" 
d="M425 36q-65 -56 -169 -56q-44 0 -80.5 13t-62.5 36.5t-40.5 56.5t-14.5 74q0 99 67 146t194 47h102q5 0 7 -3.5t2 -1.5q0 54 -33 85t-108 35q-37 2 -72.5 -6.5t-68.5 -22.5q-19 -8 -34.5 -0.5t-15.5 30.5v20q0 29 30 40q45 15 87 23t84 8q251 0 251 -253v-276
q0 -17 -10 -27.5t-29 -10.5h-19q-18 -30 -21 -49t5.5 -27.5t26.5 -7t41 11.5q10 4 20 2.5t18 -9.5l25 -26q11 -12 7.5 -25.5t-18.5 -18.5q-35 -13 -71 -15t-67 5.5t-53 25t-29 43t3.5 59t45.5 74.5zM314 261q-46 0 -74.5 -4.5t-45 -12.5t-23 -20t-7.5 -28q-1 -6 -0.5 -10.5
t2.5 -10.5q8 -23 32 -29t72 -6q30 0 51 3.5t34 15.5t19 34.5t6 60.5q0 4 -1.5 5.5t-7.5 1.5h-57z" />
    <glyph glyph-name="Cacute" unicode="&#x106;" horiz-adv-x="829" 
d="M550 1092q-11 -18 -31 -18h-98q-20 0 -26 13t5 28l117 152q10 15 30 15h65q17 0 24 -12.5t-1 -26.5zM759 102q-2 -15 -7.5 -24t-16.5 -19q-49 -43 -117.5 -58t-141.5 -15q-110 0 -189 31.5t-130 90.5t-75 142t-24 187q0 103 27.5 186.5t80.5 142t131 90t179 31.5
q72 0 139.5 -8t127.5 -37q14 -7 22.5 -20t4.5 -30l-12 -54q-5 -23 -19 -31t-38 6q-51 31 -106.5 42.5t-118.5 11.5q-139 0 -203.5 -82t-61.5 -248q1 -66 12 -106.5t39.5 -63.5t80 -31t133.5 -8q31 0 65.5 4.5t67 12.5t60 18.5t44.5 22.5q7 5 17.5 7.5t20 -0.5t15.5 -11.5
t5 -24.5z" />
    <glyph glyph-name="cacute" unicode="&#x107;" horiz-adv-x="579" 
d="M426 801q-11 -18 -31 -18h-98q-20 0 -26 13.5t5 27.5l117 151q10 15 30 15h65q17 0 24 -12.5t-1 -26.5zM471 449q-56 25 -119 25q-81 0 -122.5 -50t-41.5 -144q6 -63 42 -96t119 -36q29 -1 59.5 7t62.5 19q19 6 33.5 -1.5t14.5 -30.5l1 -87q0 -32 -27 -42
q-71 -27 -151 -27q-65 0 -117.5 20.5t-89.5 59t-57 92.5t-20 121t20 121.5t57.5 92.5t91 58.5t121.5 20.5q78 0 144 -25q29 -11 29 -41v-27q0 -23 -15.5 -30.5t-34.5 0.5z" />
    <glyph glyph-name="Cdotaccent" unicode="&#x10a;" horiz-adv-x="829" 
d="M398 921q-14 0 -22.5 7.5t-7.5 21.5l2 71q2 29 30 29l66 1q14 0 22 -8t8 -21l2 -72q1 -14 -7.5 -21.5t-22.5 -7.5h-70zM759 102q-2 -15 -7.5 -24t-16.5 -19q-49 -43 -117.5 -58t-141.5 -15q-110 0 -189 31.5t-130 90t-75 141t-24 185.5t27.5 186t80.5 141.5t131 90
t179 31.5q72 0 139.5 -8.5t127.5 -37.5q14 -7 22.5 -19.5t4.5 -29.5l-12 -53q-5 -23 -19 -31t-38 6q-51 31 -106.5 42t-118.5 11q-139 0 -203.5 -81.5t-61.5 -246.5q1 -66 12 -106.5t39.5 -63t80 -30.5t133.5 -8q31 0 65.5 4.5t67 12.5t60 18.5t44.5 22.5q7 5 17.5 7.5
t20 -0.5t15.5 -12t5 -25z" />
    <glyph glyph-name="cdotaccent" unicode="&#x10b;" horiz-adv-x="579" 
d="M274 630q-14 0 -22.5 7.5t-7.5 21.5l2 71q1 28 30 28l66 1q14 0 22 -8t8 -20l2 -72q1 -14 -7.5 -21.5t-22.5 -7.5h-70zM471 445q-56 25 -119 25q-81 0 -122.5 -49.5t-41.5 -143.5q6 -62 42 -94t119 -36q29 -2 59.5 6t62.5 19q19 6 33.5 -1.5t14.5 -29.5l1 -86
q0 -32 -27 -42q-71 -27 -151 -27q-65 0 -117.5 20.5t-89.5 58.5t-57 92t-20 120q0 67 20 120.5t57.5 91t91 58t121.5 20.5q78 0 144 -25q29 -11 29 -40v-27q0 -22 -15.5 -30t-34.5 0z" />
    <glyph glyph-name="Ccaron" unicode="&#x10c;" horiz-adv-x="829" 
d="M443 988l55 87q11 17 31 17h76q19 0 26 -13t-5 -28l-128 -153q-12 -14 -30 -14h-50q-19 0 -30 14l-118 153q-11 14 -5 27.5t26 13.5h65q20 0 31 -17zM759 102q-2 -15 -7.5 -24t-16.5 -19q-49 -43 -117.5 -58t-141.5 -15q-110 0 -189 31.5t-130 90t-75 141.5t-24 186
t27.5 186t80.5 141.5t131 90t179 31.5q72 0 139.5 -8.5t127.5 -37.5q14 -7 22.5 -19.5t4.5 -29.5l-12 -54q-5 -23 -19 -30.5t-38 6.5q-51 31 -106.5 42t-118.5 11q-139 0 -203.5 -82t-61.5 -247q1 -65 12 -106t39.5 -63.5t80 -30.5t133.5 -8q31 0 65.5 4.5t67 12.5t60 18.5
t44.5 22.5q7 5 17.5 7.5t20 -0.5t15.5 -11.5t5 -24.5z" />
    <glyph glyph-name="ccaron" unicode="&#x10d;" horiz-adv-x="579" 
d="M319 697l55 87q10 16 31 16h76q19 0 26.5 -13t-5.5 -28l-128 -151q-12 -14 -30 -14h-50q-19 0 -30 14l-118 151q-11 15 -5 28t26 13h65q21 0 31 -16zM471 446q-56 25 -119 25q-81 0 -122.5 -49.5t-41.5 -143.5q6 -62 42 -95t119 -36q29 -1 59.5 6.5t62.5 18.5
q19 6 33.5 -1t14.5 -30l1 -86q0 -32 -27 -42q-71 -27 -151 -27q-65 0 -117.5 20.5t-89.5 58.5t-57 92t-20 120q0 67 20 121t57.5 92t91 58.5t121.5 20.5q79 0 144 -26q29 -12 29 -40v-27q0 -23 -15.5 -30.5t-34.5 0.5z" />
    <glyph glyph-name="Dcaron" unicode="&#x10e;" horiz-adv-x="869" 
d="M418 994l55 87q11 17 31 17h76q19 0 26 -13t-5 -28l-128 -153q-12 -14 -30 -14h-50q-19 0 -30 14l-118 153q-11 15 -5 28t26 13h65q20 0 31 -17zM101 0q-20 0 -31.5 12t-11.5 30v782q0 42 43 42h211q105 0 196 -25.5t158.5 -78.5t106 -134.5t38.5 -193.5t-39 -194
t-106.5 -135t-158.5 -79t-195 -26h-211zM224 745q-13 0 -13 -14v-491q0 -12 13 -12h112q64 0 123 7t103.5 29t71 62.5t26.5 107.5q0 71 -19 128.5t-58.5 98t-101 62.5t-145.5 22h-112z" />
    <glyph glyph-name="dcaron" unicode="&#x10f;" horiz-adv-x="644" 
d="M700 570q-10 -18 -31 -18h-49q-14 0 -23 9.5t-5 24.5l43 160l1.5 7.5t0.5 7.5v77q0 29 30 29h97q30 0 30 -29v-76q0 -6 -1 -12t-5 -13zM466 823q2 37 40 37h41q19 0 29 -11t10 -28l-9 -784q0 -17 -10.5 -27t-28.5 -10h-41q-40 0 -40 37v12q-29 -33 -69 -48t-91 -15
q-54 0 -98 21.5t-75.5 60.5t-48.5 92.5t-17 117.5t17 117.5t48.5 92.5t75.5 60.5t98 21.5q51 0 91.5 -15t69.5 -48l1 -1zM290 478q-60 0 -97 -44t-40 -132v-13.5t2 -12.5q11 -56 41 -79.5t92 -23.5q33 0 57.5 4t40.5 16.5t23.5 36.5t7.5 64q0 96 -32 140t-95 44z" />
    <glyph glyph-name="Dcroat" unicode="&#x110;" horiz-adv-x="869" 
d="M262 890q-30 0 -30 29v69q0 29 30 29h289q30 0 30 -29v-69q0 -29 -30 -29h-289zM101 0q-20 0 -31.5 12t-11.5 30v781q0 41 43 41h211q105 0 196 -25.5t158.5 -78.5t106 -134.5t38.5 -192.5q0 -112 -39 -193.5t-106.5 -135t-158.5 -79t-195 -25.5h-211zM224 743
q-13 0 -13 -14v-489q0 -13 13 -13h112q64 0 123 7t103.5 29t71 62.5t26.5 107.5q0 71 -19 128.5t-58.5 98t-101 62t-145.5 21.5h-112z" />
    <glyph glyph-name="dcroat" unicode="&#x111;" horiz-adv-x="774" 
d="M461 594h-111q-30 0 -30 29v60q0 29 30 29h113l3 111q2 37 40 37h41q19 0 29 -11t10 -28l-1 -109h101q30 0 30 -29v-60q0 -29 -30 -29h-102l-7 -557q0 -17 -10.5 -27t-28.5 -10h-41q-40 0 -40 37v12q-29 -33 -69 -48t-91 -15q-54 0 -98 21.5t-75.5 60.5t-48.5 92.5
t-17 117.5t17 117.5t48.5 92.5t75.5 60.5t98 21.5q104 0 161 -63q1 -1 1 -2zM290 478q-60 0 -97 -44t-40 -132v-13.5t2 -12.5q11 -56 41 -79.5t92 -23.5q33 0 57.5 4t40.5 16.5t23.5 36.5t7.5 64q0 96 -32 140t-95 44z" />
    <glyph glyph-name="Emacron" unicode="&#x112;" horiz-adv-x="700" 
d="M188 891q-30 0 -30 29v69q0 29 30 29h289q30 0 30 -29v-69q0 -29 -30 -29h-289zM102 0q-20 0 -32 11.5t-12 30.5v781q0 20 12 31t32 11h486q20 0 32 -11t12 -31v-21q0 -19 -12 -30.5t-32 -11.5h-370q-13 0 -13 -13v-213q0 -14 13 -14h353q43 0 43 -42v-39
q0 -20 -11.5 -32t-31.5 -12h-353q-8 0 -10.5 -2t-2.5 -10v-141q0 -9 3 -12t10 -3h381q43 0 43 -41v-144q0 -18 -11 -30t-32 -12h-497z" />
    <glyph glyph-name="emacron" unicode="&#x113;" horiz-adv-x="630" 
d="M176 593q-30 0 -30 29v68q0 29 30 29h289q30 0 30 -29v-68q0 -29 -30 -29h-289zM196 273q-5 0 -7 -1.5t-2 -7.5q0 -37 7.5 -60t26 -36t49.5 -17.5t79 -4.5q45 0 91 2t75 10q16 4 31.5 -2.5t15.5 -29.5l1 -70q0 -28 -26 -40q-23 -11 -43.5 -17.5t-42.5 -9.5t-47.5 -3.5
t-57.5 0.5q-148 4 -219 73t-69 202q1 67 20 123t54.5 96.5t86 63t116.5 22.5q44 0 86.5 -16t76 -47.5t54 -77t20.5 -105.5v-8q0 -17 -10.5 -28t-28.5 -11h-337zM335 489q-31 0 -56.5 -8.5t-44.5 -23t-31 -34.5t-15 -42q-2 -9 8 -9l269 1q5 0 6.5 1.5t-0.5 7.5
q-9 49 -45.5 78t-90.5 29z" />
    <glyph glyph-name="Edotaccent" unicode="&#x116;" horiz-adv-x="700" 
d="M299 928q-14 0 -22.5 7.5t-7.5 21.5l2 71q2 29 30 29l66 1q14 0 22 -8t8 -21l2 -72q1 -14 -7.5 -21.5t-22.5 -7.5h-70zM102 0q-20 0 -32 11.5t-12 30.5v782q0 20 12 30.5t32 10.5h486q20 0 32 -10.5t12 -30.5v-21q0 -19 -12 -31t-32 -12h-370q-8 0 -10.5 -2t-2.5 -10
v-213q0 -9 3 -12t10 -3h353q43 0 43 -42v-38q0 -20 -11.5 -32t-31.5 -12h-353q-13 0 -13 -13v-141q0 -14 13 -14h381q43 0 43 -42v-144q0 -18 -11 -30t-32 -12h-497z" />
    <glyph glyph-name="edotaccent" unicode="&#x117;" horiz-adv-x="630" 
d="M287 630q-14 0 -22.5 7.5t-7.5 21.5l2 71q1 28 30 28l66 1q14 0 22 -8t8 -20l2 -72q1 -14 -7.5 -21.5t-22.5 -7.5h-70zM196 274q-9 0 -9 -10q0 -37 7.5 -60t26 -35.5t49.5 -17t79 -4.5q45 0 91 2t75 9q16 4 31.5 -2t15.5 -29l1 -71q0 -26 -26 -40q-23 -11 -43.5 -17.5
t-42.5 -9.5t-47.5 -3.5t-57.5 0.5q-148 4 -219 73.5t-69 202.5q1 67 20 123t54.5 96.5t86 63t116.5 22.5q44 0 86.5 -16t76 -47.5t54 -77t20.5 -105.5v-9q0 -17 -10.5 -27.5t-28.5 -10.5h-337zM335 490q-31 0 -56.5 -8.5t-44.5 -23t-31 -34.5t-15 -42q-1 -6 1 -7.5t7 -1.5
l269 1q5 0 6.5 1t-0.5 8q-9 49 -45.5 78t-90.5 29z" />
    <glyph glyph-name="Eogonek" unicode="&#x118;" horiz-adv-x="700" 
d="M102 -6q-20 0 -32 12t-12 30v782q0 20 12 31t32 11h486q20 0 32 -11t12 -31v-20q0 -20 -12 -31.5t-32 -11.5h-370q-13 0 -13 -13v-213q0 -14 13 -14h353q43 0 43 -42v-39q0 -20 -11.5 -32t-31.5 -12h-353q-8 0 -10.5 -2t-2.5 -10v-141q0 -9 3 -12t10 -3h381q43 0 43 -42
v-144q0 -18 -11 -30t-32 -12h-206q-2 -8 -5 -11q-24 -37 -29.5 -59.5t3 -33t27 -9.5t41.5 12q22 9 38 -7l25 -27q11 -12 7.5 -25t-18.5 -19q-65 -24 -115 -17.5t-77 33.5t-27 70t36 93h-197z" />
    <glyph glyph-name="eogonek" unicode="&#x119;" horiz-adv-x="630" 
d="M341 -21q-288 10 -283 275q1 67 20 123t54.5 96.5t86 63.5t116.5 23q44 0 86.5 -16t76 -47.5t54 -77t20.5 -105.5v-9q0 -17 -10.5 -28t-28.5 -11h-337q-5 0 -7 -1.5t-2 -7.5q0 -37 7.5 -60t26 -36t49.5 -17.5t79 -4.5q45 0 91 2t75 9q16 4 31.5 -2t15.5 -29l1 -70
q0 -28 -26 -40t-49 -18.5t-49 -8.5l-4 -8q-25 -37 -30 -59.5t3 -32.5t27 -9t42 12q22 9 38 -7l25 -26q11 -12 7.5 -25.5t-18.5 -18.5q-63 -24 -112.5 -18t-77.5 32t-29.5 67.5t31.5 89.5zM335 483q-31 0 -56.5 -8.5t-44.5 -23.5t-31 -34.5t-15 -41.5q-1 -6 1 -7.5t7 -1.5
l269 1q5 0 6.5 1t-0.5 8q-9 49 -45.5 78t-90.5 29z" />
    <glyph glyph-name="Ecaron" unicode="&#x11a;" horiz-adv-x="700" 
d="M344 995l55 87q11 17 31 17h76q19 0 26 -13t-5 -28l-128 -153q-12 -14 -30 -14h-50q-19 0 -30 14l-118 153q-11 15 -5 28t26 13h65q20 0 31 -17zM102 0q-20 0 -32 11.5t-12 30.5v782q0 21 12 31.5t32 10.5h486q20 0 32 -10.5t12 -31.5v-20q0 -20 -12 -31.5t-32 -11.5
h-370q-8 0 -10.5 -2t-2.5 -10v-214q0 -14 13 -14h353q43 0 43 -42v-39q0 -20 -11.5 -32t-31.5 -12h-353q-8 0 -10.5 -2t-2.5 -10v-142q0 -14 13 -14h381q43 0 43 -42v-144q0 -18 -11 -30t-32 -12h-497z" />
    <glyph glyph-name="ecaron" unicode="&#x11b;" horiz-adv-x="630" 
d="M332 697l55 87q10 16 31 16h76q19 0 26.5 -13t-5.5 -28l-128 -151q-12 -14 -30 -14h-50q-19 0 -30 14l-118 151q-11 15 -5 28t26 13h65q21 0 31 -16zM196 274q-5 0 -7 -1.5t-2 -7.5q0 -37 7.5 -60t26 -36t49.5 -17.5t79 -4.5q45 0 91 2t75 9q16 4 31.5 -2t15.5 -29l1 -70
q0 -15 -6.5 -24.5t-19.5 -16.5q-23 -11 -43.5 -17.5t-42.5 -9.5t-47.5 -3.5t-57.5 0.5q-148 4 -219 73.5t-69 202.5q1 67 20 123.5t54.5 97t86 63.5t116.5 23q44 0 86.5 -16t76 -47.5t54 -77.5t20.5 -106v-9q0 -17 -10.5 -28t-28.5 -11h-337zM335 491q-31 0 -56.5 -8.5
t-44.5 -23.5t-31 -34.5t-15 -41.5q-1 -6 1 -7.5t7 -1.5l269 1q5 0 6.5 1t-0.5 8q-9 49 -45.5 78t-90.5 29z" />
    <glyph glyph-name="Gbreve" unicode="&#x11e;" horiz-adv-x="897" 
d="M461 921q-72 0 -119.5 34t-57.5 109q-2 15 7 23.5t23 8.5h38q13 0 21 -7t10 -16q7 -23 25 -35.5t53 -12.5q34 0 52 12.5t26 35.5t31 23h38q14 0 23 -8.5t7 -23.5q-10 -75 -57.5 -109t-119.5 -34zM823 75q-139 -89 -321 -89q-104 0 -186.5 30.5t-139.5 88.5t-87.5 141.5
t-30.5 188.5q0 106 34.5 189t94.5 141t141 88.5t174 30.5h36t57 -3t82.5 -11t116.5 -25q10 -2 15.5 -11.5t7.5 -20.5l12 -76q3 -20 -7 -25t-33 0q-67 15 -115 23t-81 12q-32 4 -51.5 4.5t-29.5 0.5q-65 0 -118.5 -17t-92.5 -54t-60 -95t-19 -139q1 -86 10.5 -136t39.5 -75
t87 -31.5t153 -6.5q57 0 99 8t63 23q2 2 2.5 3t0.5 6v73q0 2 -3 2h-149q-15 0 -24 9t-9 23v75q0 15 9 23t24 8h282q14 0 23 -8.5t9 -22.5v-311q0 -21 -16 -34z" />
    <glyph glyph-name="gbreve" unicode="&#x11f;" horiz-adv-x="644" 
d="M333 595q-72 0 -119.5 34t-57.5 109q-2 15 7 23.5t23 8.5h38q13 0 21 -7t10 -16q7 -23 25 -35.5t53 -12.5q34 0 52 12.5t26 35.5t31 23h38q14 0 23 -8.5t7 -23.5q-10 -75 -57.5 -109t-119.5 -34zM444 39q-27 -22 -64 -35t-83 -13q-54 0 -98.5 21t-75.5 59t-48 91t-17 116
q0 64 17 116.5t48 90.5t75.5 59t98.5 21q51 0 92 -15.5t70 -49.5q3 -3 3 -1l2 20q2 17 13.5 25.5t27.5 8.5h42q19 0 29.5 -11t9.5 -29l-14 -442q-4 -126 -21 -208.5t-50 -131t-82.5 -67.5t-118.5 -19q-42 0 -81 5t-75 17q-30 9 -30 40v106q0 22 15.5 29.5t34.5 -0.5
q30 -14 60.5 -19.5t61.5 -5.5q30 0 54 10.5t43 34.5t33 62t24 93zM284 468q-63 0 -95.5 -45t-32.5 -139q4 -44 11 -68.5t20.5 -36.5t35 -14.5t54.5 -2.5q36 0 63 3t45 15t27.5 36.5t9.5 66.5q0 94 -37 139.5t-101 45.5z" />
    <glyph glyph-name="Gdotaccent" unicode="&#x120;" horiz-adv-x="897" 
d="M425 955q-14 0 -22.5 7.5t-7.5 21.5l2 71q2 29 30 29l66 1q14 0 22 -8t8 -21l2 -72q1 -14 -7.5 -21.5t-22.5 -7.5h-70zM823 75q-139 -89 -321 -89q-104 0 -186.5 30.5t-139.5 88.5t-87.5 141.5t-30.5 188.5t34.5 188.5t94.5 141.5t141 88.5t174 30.5h36t57 -3
q35 -4 82.5 -11.5t116.5 -24.5q10 -2 15.5 -11.5t7.5 -20.5l12 -76q3 -21 -7 -25.5t-33 0.5q-67 15 -115 23t-81 12q-32 4 -51.5 4.5t-29.5 0.5q-65 0 -118.5 -17t-92.5 -54t-60 -95t-19 -139q1 -86 10.5 -136t39.5 -75t87 -31.5t153 -6.5q57 0 99 8t63 23q2 2 2.5 3t0.5 6
v73q0 2 -3 2h-149q-15 0 -24 8.5t-9 23.5v75q0 15 9 23t24 8h282q14 0 23 -8.5t9 -22.5v-311q0 -21 -16 -34z" />
    <glyph glyph-name="gdotaccent" unicode="&#x121;" horiz-adv-x="644" 
d="M297 629q-14 0 -22.5 7.5t-7.5 21.5l2 71q2 29 30 29l66 1q14 0 22 -8t8 -21l2 -72q1 -14 -7.5 -21.5t-22.5 -7.5h-70zM444 39q-27 -22 -64 -35t-83 -13q-54 0 -98.5 21t-75.5 59t-48 90.5t-17 116.5q0 63 17 116t48 91t75.5 59t98.5 21q51 0 92 -15.5t70 -49.5
q3 -3 3 -2l2 21q2 17 13.5 25.5t27.5 8.5h42q19 0 29.5 -11t9.5 -29l-14 -442q-4 -126 -21 -208.5t-50 -131t-82.5 -67.5t-118.5 -19q-42 0 -81 5t-75 17q-30 9 -30 40v105q0 23 15.5 30.5t34.5 -0.5q59 -25 122 -25q30 0 54 10.5t43 34.5t33 62t24 93zM284 468
q-63 0 -95.5 -45t-32.5 -139q4 -44 11 -68.5t20.5 -36.5t35 -14.5t54.5 -2.5q36 0 63 3t45 15t27.5 36.5t9.5 66.5q0 94 -37 139.5t-101 45.5z" />
    <glyph glyph-name="Gcommaaccent" unicode="&#x122;" horiz-adv-x="897" 
d="M823 67q-139 -89 -321 -89q-104 0 -186.5 30.5t-139.5 88.5t-87.5 141.5t-30.5 189.5t34.5 189.5t94.5 141.5t141 88.5t174 30.5h36t57 -3t82.5 -11t116.5 -25q10 -2 15.5 -11.5t7.5 -20.5l12 -76q3 -21 -7 -25.5t-33 0.5q-67 15 -115 23t-81 12q-32 4 -51.5 4.5
t-29.5 0.5q-65 0 -118.5 -17t-92.5 -54t-60 -95t-19 -140q1 -86 10.5 -136t39.5 -75t87 -31.5t153 -6.5q57 0 99 7.5t63 23.5q2 2 2.5 3t0.5 6v73q0 2 -3 2h-149q-15 0 -24 8.5t-9 23.5v75q0 15 9 23.5t24 8.5h282q14 0 23 -9t9 -23v-312q0 -21 -16 -34zM391 -324
q-8 -10 -18 -16t-24 -6h-16q-21 0 -32.5 14t-3.5 34l49 118q5 12 3 23l-10 66q-3 22 10.5 31.5t30.5 9.5h77q20 0 29 -10t12 -27l10 -65q2 -12 -2 -22.5t-11 -19.5z" />
    <glyph glyph-name="gcommaaccent" unicode="&#x123;" horiz-adv-x="644" 
d="M444 34q-27 -22 -64 -35t-83 -13q-54 0 -98.5 21t-75.5 59t-48 90.5t-17 116.5q0 63 17 116t48 91t75.5 59t98.5 21q51 0 92 -15.5t70 -49.5q3 -3 3 -2l2 21q2 17 13.5 25t27.5 8h42q19 0 29.5 -10.5t9.5 -28.5l-14 -442q-3 -105 -15.5 -179.5t-35.5 -124.5t-58 -77
t-84 -37q-1 -15 -13 -28l-104 -130q-8 -10 -18 -16t-24 -6h-16q-21 0 -32.5 14t-3.5 34l49 117q1 2 2 5.5t2 7.5q-41 5 -77 16q-30 9 -30 41v105q0 22 15.5 30t34.5 0q31 -14 61 -19.5t61 -5.5q30 0 54 10.5t43 34t33 61.5t24 93zM284 463q-128 0 -128 -185q4 -44 11 -68.5
t20.5 -36t35 -14t54.5 -2.5q36 0 63 3t45 15t27.5 36.5t9.5 66.5q0 94 -37 139.5t-101 45.5z" />
    <glyph glyph-name="Hbar" unicode="&#x126;" horiz-adv-x="1142" 
d="M913 573l7 -531q0 -19 -11.5 -30.5t-31.5 -11.5h-76q-43 0 -43 42v182q0 14 -15 14h-342q-13 0 -13 -14v-182q0 -21 -12.5 -31.5t-32.5 -10.5h-75q-20 0 -32.5 11t-10.5 31l7 531h-144q-30 0 -30 29v43q0 13 8 21t22 8h145l2 144q0 20 12.5 31t32.5 11h63
q20 0 32.5 -11.5t12.5 -31.5v-143h370v143q0 19 11 31t32 12h65q20 0 32 -11t12 -31l2 -144h142q14 0 22 -8t8 -21v-43q0 -29 -30 -29h-141zM758 573h-370v-137q0 -14 13 -14h342q15 0 15 14v137z" />
    <glyph glyph-name="hbar" unicode="&#x127;" horiz-adv-x="693" 
d="M532 0q-18 0 -29 10.5t-10 28.5l14 292q2 43 -4.5 71t-20.5 44t-34.5 22.5t-46.5 6.5q-33 0 -59.5 -11.5t-45.5 -32.5t-28.5 -51t-8.5 -66l9 -275q1 -17 -9.5 -28t-29.5 -11h-80q-18 0 -29 10.5t-10 28.5l27 560h-83l22 87h66l6 137q1 37 40 37h41q19 0 29.5 -11t9.5 -28
l-4 -135h157l15 -87h-173q-1 -24 -2 -33.5t-1.5 -12t-1 -2t-0.5 -2t0.5 -12.5t1.5 -33q0 1 1 2q63 64 160 64q103 0 152 -61t53 -175l9 -295q1 -17 -9.5 -28t-29.5 -11h-64z" />
    <glyph glyph-name="Itilde" unicode="&#x128;" horiz-adv-x="361" 
d="M174 1108q-31 42 -47.5 36t-22.5 -44q-2 -12 -9 -19.5t-21 -7.5h-32q-15 0 -22.5 9t-6.5 22q4 47 22.5 80t45 47t58 8.5t61.5 -35.5l28 -27q18 -18 30.5 -14.5t14.5 46.5q1 12 8.5 20t21.5 8h32q15 0 22.5 -9t6.5 -22q-3 -45 -22 -81t-46.5 -53t-59.5 -10.5t-62 46.5z
M102 0q-9 0 -18 2.5t-16 8t-9.5 14.5t0.5 22q27 102 47.5 205t28.5 203.5t0 196t-39 182.5q-5 12 -1 20.5t11.5 14t17 8t16.5 2.5h97q20 0 33.5 -12t9.5 -34q-8 -50 -13 -118.5t-7 -144.5t-1 -154.5t6 -149t13.5 -127.5t21.5 -89q5 -13 2.5 -22.5t-9.5 -15.5t-16.5 -9
t-17.5 -3h-157z" />
    <glyph glyph-name="itilde" unicode="&#x129;" horiz-adv-x="287" 
d="M139 796q-31 42 -47.5 36t-22.5 -44q-2 -11 -9 -19t-21 -8h-32q-15 0 -22.5 9.5t-6.5 21.5q4 47 22.5 79t44.5 46t57.5 8.5t62.5 -34.5l28 -26q20 -18 31.5 -14.5t13.5 45.5q1 12 8.5 20t21.5 8h32q15 0 22.5 -9t6.5 -22q-3 -45 -22 -80.5t-46.5 -52.5t-59.5 -10.5
t-62 46.5zM97 -5q-18 0 -30 10t-9 31q9 60 16.5 115t12 112t5.5 118.5t-3 135.5q-1 18 11 27.5t29 9.5h42q18 0 29.5 -10.5t9.5 -29.5q-6 -56 -9 -119t-2 -126.5t7.5 -122.5t20.5 -107q7 -23 -7 -33.5t-30 -10.5h-93z" />
    <glyph glyph-name="Imacron" unicode="&#x12a;" horiz-adv-x="361" 
d="M41 905q-30 0 -30 29v69q0 29 30 29h289q30 0 30 -29v-69q0 -29 -30 -29h-289zM102 0q-9 0 -18 2.5t-16 8t-9.5 14.5t0.5 21q26 101 47 204t29 203t0 195.5t-39 181.5q-5 12 -1 20.5t11.5 14t17 8t16.5 2.5h97q20 0 33.5 -12t9.5 -34q-8 -50 -13 -118t-7 -144t-1 -154
t6 -148t13.5 -126.5t21.5 -88.5q5 -13 2.5 -22.5t-9.5 -15.5t-16.5 -9t-17.5 -3h-157z" />
    <glyph glyph-name="imacron" unicode="&#x12b;" horiz-adv-x="287" 
d="M6 593q-30 0 -30 29v68q0 29 30 29h289q30 0 30 -29v-68q0 -29 -30 -29h-289zM97 -5q-18 0 -30 10t-9 31q9 59 16.5 113.5t12 111t5.5 118t-3 134.5q-1 17 11 26.5t29 9.5h42q18 0 29.5 -10.5t9.5 -29.5q-6 -54 -9.5 -116.5t-2 -125t8 -122t20.5 -107.5q6 -22 -7 -32.5
t-30 -10.5h-93z" />
    <glyph glyph-name="Iogonek" unicode="&#x12e;" horiz-adv-x="361" 
d="M203 -6q-1 -2 -2 -4.5t-3 -6.5q-24 -37 -29.5 -59.5t3 -33t27 -9.5t41.5 12q22 9 38 -7l25 -27q11 -12 7.5 -25t-18.5 -19q-65 -24 -115 -17.5t-77 33.5t-27 70t36 93h-7q-9 0 -18 2.5t-16 8.5t-9.5 15t0.5 21q27 101 47.5 204t28.5 203t0 195.5t-39 181.5q-5 12 -1 20.5
t11.5 14t17 8t16.5 2.5h97q20 0 33.5 -12t9.5 -34q-8 -50 -13 -118t-7 -144t-1 -154t6 -148t13.5 -126.5t21.5 -88.5q5 -13 2.5 -22.5t-9.5 -16t-16.5 -9.5t-17.5 -3h-56z" />
    <glyph glyph-name="iogonek" unicode="&#x12f;" horiz-adv-x="287" 
d="M117 629q-14 0 -22.5 8t-7.5 22l2 70q2 29 30 29l66 1q14 0 22 -8t8 -21l2 -71q1 -14 -7.5 -22t-22.5 -8h-70zM263 -170q-62 -23 -111 -18t-77.5 30t-31.5 65.5t28 88.5q-16 10 -13 34q9 60 16.5 115t12 112t5.5 119t-3 136q-1 17 11 27t29 10h42q18 0 29.5 -10.5
t9.5 -30.5q-6 -55 -9.5 -118t-2 -126t8 -122.5t20.5 -108.5q6 -23 -7 -33.5t-30 -10.5h-27q-21 -34 -25 -54.5t4.5 -30t27 -8t41.5 11.5q10 4 20 2.5t18 -10.5l25 -26q11 -12 7.5 -25t-18.5 -19z" />
    <glyph glyph-name="Idotaccent" unicode="&#x130;" horiz-adv-x="361" 
d="M152 942q-14 0 -22.5 7.5t-7.5 21.5l2 71q2 29 30 29l66 1q14 0 22 -8t8 -21l2 -72q1 -14 -7.5 -21.5t-22.5 -7.5h-70zM102 0q-9 0 -18 2.5t-16 8t-9.5 14.5t0.5 21q27 102 47.5 205t29 203.5t0 195.5t-39.5 181q-5 12 -1 20.5t11.5 14t17 8t16.5 2.5h97q20 0 33.5 -12
t9.5 -34q-8 -50 -13 -118t-7 -144t-1 -154.5t6 -148.5t13.5 -126.5t21.5 -88.5q5 -13 2.5 -22.5t-9.5 -15.5t-16.5 -9t-17.5 -3h-157z" />
    <glyph glyph-name="dotlessi" unicode="&#x131;" horiz-adv-x="287" 
d="M97 -5q-18 0 -30 10t-9 30q9 58 16.5 112t12 110t5.5 116.5t-3 132.5q-1 17 11 26.5t29 9.5h42q18 0 29.5 -10.5t9.5 -28.5q-6 -54 -9.5 -115.5t-2 -123.5t8 -120.5t20.5 -105.5q6 -22 -7 -32.5t-30 -10.5h-93z" />
    <glyph glyph-name="IJ" unicode="&#x132;" horiz-adv-x="835" 
d="M741 81q-4 -78 -22 -133t-53 -90t-87.5 -51.5t-124.5 -17.5l-40 4q-21 2 -31 14t-12 29l-1 127q0 23 14 34t36 6l10 -2q8 -2 15 -3t15 0q32 4 54 13.5t36 22.5t20.5 27.5t7.5 28.5l47 767q2 19 13 31t33 10l65 -5q19 -2 30.5 -13t10.5 -31zM102 -6q-9 0 -18 2.5t-16 8.5
t-9.5 15t0.5 21q27 102 47.5 205t29 203.5t0 195.5t-39.5 181q-5 12 -1 20.5t11.5 14t17 8t16.5 2.5h97q20 0 33.5 -12t9.5 -34q-8 -50 -13 -118t-7 -144t-1 -154.5t6 -148.5t13.5 -126.5t21.5 -88.5q5 -13 2.5 -22.5t-9.5 -16t-16.5 -9.5t-17.5 -3h-157z" />
    <glyph glyph-name="ij" unicode="&#x133;" horiz-adv-x="775" 
d="M623 620q-20 0 -30 11t-9 28l3 64q1 16 11 26.5t28 10.5h33q17 0 28 -10t12 -27l3 -64q1 -18 -10 -28.5t-29 -10.5h-40zM112 629q-14 0 -22.5 7.5t-7.5 21.5l2 71q2 29 30 29l66 1q14 0 22 -8t8 -21l2 -72q1 -14 -7.5 -21.5t-22.5 -7.5h-70zM674 -66q-4 -53 -28 -104
t-61 -91.5t-82.5 -65t-93.5 -24.5h-25q-19 0 -29 11t-10 28l2 122q0 18 11 28t29 10h13q23 0 50 8.5t50 31t38.5 61.5t16.5 101l7 463q0 18 11 28.5t29 9.5l77 -2q17 -1 28.5 -11t9.5 -28zM97 -14q-18 0 -30 10t-9 31q9 60 16.5 115.5t12 112.5t5.5 119.5t-3 136.5
q-1 17 11 27t29 10h42q18 0 29.5 -10.5t9.5 -30.5q-6 -56 -9.5 -119t-2 -126.5t8 -123.5t20.5 -108q6 -23 -7 -33.5t-30 -10.5h-93z" />
    <glyph glyph-name="Kcommaaccent" unicode="&#x136;" horiz-adv-x="814" 
d="M514 -8q-30 0 -46 24l-242 334q-7 9 -7 -3l18 -311q2 -20 -10 -32t-32 -12h-94q-21 0 -32.5 12t-10.5 31l22 783q1 42 44 42h59q21 0 32.5 -11.5t10.5 -31.5l-9 -278q0 -5 3 -6.5t7 2.5l334 307q12 11 22.5 14.5t24.5 3.5h76q15 0 25 -5.5t13.5 -14t0 -19t-14.5 -20.5
l-368 -338q-9 -9 1 -18l401 -394q20 -20 12 -39.5t-38 -19.5h-202zM280 -308q-8 -10 -18 -16t-24 -6h-16q-21 0 -32.5 14t-3.5 34l49 117q5 11 3 24l-10 65q-3 22 10.5 32t30.5 10h77q20 0 29.5 -10.5t11.5 -26.5l10 -65q2 -13 -2 -23t-11 -19z" />
    <glyph glyph-name="kcommaaccent" unicode="&#x137;" horiz-adv-x="624" 
d="M405 -8q-25 0 -41 19l-166 198q-2 6 -2 -1l10 -177q1 -17 -9 -28t-29 -11h-70q-18 0 -29.5 10.5t-10.5 28.5l19 691q1 17 11 27.5t28 10.5h42q19 0 29 -11t10 -28l-4 -348q0 -5 4 -1l143 162q16 19 41 19h58q26 0 34.5 -16.5t-8.5 -36.5l-168 -202q-3 -4 -3.5 -6.5
t4.5 -7.5l254 -238q19 -18 11.5 -36t-34.5 -18h-124zM251 -277q-8 -10 -18 -16t-24 -6h-16q-21 0 -32.5 14t-3.5 34l49 117q5 12 3 23l-10 66q-3 22 10.5 31.5t30.5 9.5h77q20 0 29.5 -10.5t11.5 -26.5l10 -64q2 -13 -2 -23.5t-11 -19.5z" />
    <glyph glyph-name="Lacute" unicode="&#x139;" horiz-adv-x="708" 
d="M308 983q-10 -19 -31 -19h-98q-20 0 -26 13.5t5 27.5l117 152q10 15 30 15h65q17 0 24 -12.5t-1 -26.5zM642 40q-1 -40 -44 -40h-497q-20 0 -31.5 11.5t-11.5 30.5l11 784q0 20 12 31t32 11h59q20 0 32.5 -11t12.5 -31l-7 -583q0 -9 3 -12t10 -3h384q21 0 33 -11t10 -33z
" />
    <glyph glyph-name="lacute" unicode="&#x13a;" horiz-adv-x="380" 
d="M267 939q-11 -18 -31 -18h-98q-20 0 -26 13t5 27l117 152q10 15 30 15h65q17 0 24 -12.5t-1 -26.5zM117 0q-20 0 -28.5 11t-10.5 27q-9 97 -5 189t7 179q4 87 2 161.5t-22 138.5q-4 12 -0.5 20t10 13t15 7t14.5 2h52q21 0 28.5 -11.5t9.5 -25.5q8 -54 8 -123t-1 -144
t1.5 -148t14.5 -137q1 -5 2.5 -8.5t6.5 -3.5h61q40 0 40 -39v-70q0 -17 -11 -27.5t-29 -10.5h-165z" />
    <glyph glyph-name="Lcommaaccent" unicode="&#x13b;" horiz-adv-x="708" 
d="M642 32q-1 -40 -44 -40h-497q-20 0 -31.5 11.5t-11.5 30.5l11 784q0 20 12 31t32 11h59q20 0 32.5 -11t12.5 -31l-7 -583q0 -9 3 -12t10 -3h384q21 0 33 -11t10 -33zM263 -305q-8 -10 -18 -16t-24 -6h-16q-21 0 -32.5 14t-3.5 34l49 117q5 11 3 24l-10 65q-3 22 10.5 32
t30.5 10h77q20 0 29.5 -10.5t11.5 -26.5l10 -65q2 -13 -2 -23t-11 -19z" />
    <glyph glyph-name="lcommaaccent" unicode="&#x13c;" horiz-adv-x="380" 
d="M117 -9q-20 0 -28.5 11.5t-10.5 26.5q-9 97 -5 189t7 179q4 87 2 161.5t-22 137.5q-4 12 -0.5 20t10 13t15 7t14.5 2h52q21 0 28.5 -11.5t9.5 -25.5q8 -54 8 -122.5t-1 -143.5t1.5 -148t14.5 -136q1 -6 2.5 -9.5t6.5 -3.5h61q40 0 40 -39v-70q0 -17 -11 -27.5t-29 -10.5
h-165zM125 -285q-8 -10 -18 -16t-24 -6h-16q-21 0 -32.5 14t-3.5 34l49 117q5 12 3 23l-10 66q-3 21 10.5 31t30.5 10h77q20 0 29.5 -10.5t11.5 -26.5l10 -64q2 -13 -2 -23.5t-11 -19.5z" />
    <glyph glyph-name="Lcaron" unicode="&#x13d;" horiz-adv-x="708" 
d="M408 501q-10 -19 -31 -19h-49q-14 0 -23.5 9.5t-4.5 25.5l43 159l1.5 7.5t0.5 7.5v77q0 29 30 29h97q30 0 30 -29v-76q0 -6 -1 -12t-5 -13zM642 40q-3 -40 -44 -40h-497q-20 0 -31.5 11.5t-11.5 30.5l11 777q0 20 12 30.5t32 10.5h59q20 0 32.5 -11t12.5 -31l-7 -578
q0 -14 13 -14h384q21 0 33 -11t10 -32z" />
    <glyph glyph-name="lcaron" unicode="&#x13e;" horiz-adv-x="380" 
d="M311 572q-9 -18 -31 -18h-49q-14 0 -23 9.5t-5 24.5l43 160l1.5 7.5t0.5 7.5v77q0 29 30 29h97q30 0 30 -29v-76q0 -6 -1 -12t-5 -13zM117 0q-20 0 -28.5 11t-10.5 26q-9 97 -5 189t7 177q4 85 2 160t-22 138q-3 12 0 19.5t10 12.5t15 7t14 2h52q21 0 28.5 -11t9.5 -25
q8 -54 8 -122t-1 -143t1.5 -147.5t14.5 -135.5q1 -5 2.5 -8.5t6.5 -3.5h61q40 0 40 -39v-69q0 -17 -11 -27.5t-29 -10.5h-165z" />
    <glyph glyph-name="Ldot" unicode="&#x13f;" horiz-adv-x="708" 
d="M642 40q-3 -40 -44 -40h-497q-20 0 -31.5 11.5t-11.5 30.5l11 777q0 20 12 30.5t32 10.5h59q20 0 32.5 -11t12.5 -31l-7 -578q0 -14 13 -14h384q21 0 33 -11t10 -32zM307 275v149h133v-149h-133z" />
    <glyph glyph-name="ldot" unicode="&#x140;" horiz-adv-x="380" 
d="M226 303v148h133v-148h-133zM117 0q-20 0 -28.5 11t-10.5 26q-9 97 -5 188t7 176q4 85 2 158.5t-22 136.5q-4 12 -0.5 20t10 13t15 7t14.5 2h52q21 0 28.5 -11.5t9.5 -24.5q8 -54 8 -121.5t-1 -142.5t1.5 -146.5t14.5 -134.5q1 -5 2.5 -8.5t6.5 -3.5h61q40 0 40 -38v-70
q0 -17 -11 -27t-29 -10h-165z" />
    <glyph glyph-name="Lslash" unicode="&#x141;" horiz-adv-x="867" 
d="M801 40q-3 -40 -44 -40h-497q-20 0 -31.5 11.5t-11.5 30.5l4 284l-95 -57q-13 -8 -24 -4t-17 13l-22 33q-16 23 10 40l150 91l5 377q0 20 12 30.5t32 10.5h59q20 0 32.5 -11t12.5 -31l-4 -285l99 59q13 8 24 5t18 -14l20 -33q15 -26 -8 -40l-154 -93l-2 -177
q0 -14 13 -14h384q21 0 33 -11t10 -32z" />
    <glyph glyph-name="lslash" unicode="&#x142;" horiz-adv-x="597" 
d="M351 401q1 -57 4 -110.5t8.5 -99t12.5 -82t16 -59.5q5 -13 2 -22.5t-9.5 -15.5t-16 -9t-17.5 -3h-157q-9 0 -18 2.5t-16 8t-9.5 14.5t0.5 21q17 67 33 134t27 136l-85 -51q-13 -8 -24 -4.5t-17 13.5l-22 34q-7 10 -5 21t15 19l154 93q8 103 1 199t-40 186q-5 12 -1 20
t11.5 13.5t17 8t16.5 2.5h97q20 0 33 -12t10 -34q-8 -57 -14 -137.5t-8 -170.5l121 72q13 8 24 5t18 -14l20 -32q17 -26 -8 -41z" />
    <glyph glyph-name="Nacute" unicode="&#x143;" horiz-adv-x="820" 
d="M536 983q-10 -19 -31 -19h-98q-20 0 -26 13.5t5 27.5l117 152q10 15 30 15h65q17 0 24 -12.5t-1 -26.5zM601 0q-32 0 -47 28l-332 613q-5 9 -6 8.5t0 -9.5l41 -596q2 -20 -10.5 -32t-32.5 -12h-113q-21 0 -32.5 12t-10.5 32l33 765q2 42 44 42h94q32 0 47 -28l326 -583
q2 -4 4.5 -3.5t2.5 4.5l15 585q1 42 44 42h50q20 0 32 -11t12 -31v-784q0 -19 -12 -30.5t-32 -11.5h-117z" />
    <glyph glyph-name="nacute" unicode="&#x144;" horiz-adv-x="656" 
d="M426 801q-11 -18 -31 -18h-98q-20 0 -26 13.5t5 27.5l117 151q10 15 30 15h65q17 0 24 -12.5t-1 -26.5zM461 0q-20 0 -30 11t-9 29l18 298q5 72 -20 103.5t-76 31.5q-76 0 -114.5 -40t-32.5 -112l24 -281q2 -19 -9.5 -29.5t-29.5 -10.5h-85q-19 0 -29.5 11t-9.5 28
l13 488q1 17 11.5 27.5t28.5 10.5h42q19 0 29 -11t10 -28v-4q0 -6 5 -3q30 21 69.5 37.5t87.5 16.5q51 0 88 -16t62 -46.5t40 -74.5t21 -100l33 -296q2 -19 -9 -29.5t-30 -10.5h-98z" />
    <glyph glyph-name="Ncommaaccent" unicode="&#x145;" horiz-adv-x="820" 
d="M601 -8q-31 0 -47 29l-332 612q-5 9 -6 8.5t0 -9.5l41 -596q2 -20 -10.5 -32t-32.5 -12h-113q-21 0 -32.5 12t-10.5 32l33 765q2 42 44 42h94q32 0 47 -28l326 -583q2 -3 4.5 -3t2.5 5l15 584q1 42 44 42h50q20 0 32 -11t12 -31v-784q0 -19 -12 -30.5t-32 -11.5h-117z
M307 -283q-8 -10 -18 -16t-24 -6h-16q-21 0 -32.5 14t-3.5 34l49 117q5 11 3 24l-10 65q-3 22 10.5 31.5t30.5 9.5h77q20 0 29.5 -10t11.5 -26l10 -65q2 -13 -2 -23t-11 -19z" />
    <glyph glyph-name="ncommaaccent" unicode="&#x146;" horiz-adv-x="656" 
d="M461 -10q-20 0 -30 11t-9 28l18 297q5 72 -20 103t-76 31q-76 0 -114.5 -39.5t-32.5 -111.5l24 -279q2 -19 -9.5 -29.5t-29.5 -10.5h-85q-19 0 -29.5 11t-9.5 28l13 486q2 37 40 37h42q19 0 29 -10.5t10 -27.5v-4q0 -6 5 -3q30 21 69.5 37t87.5 16q51 0 88 -16t62 -46
t40 -74t21 -99l33 -295q2 -19 -9 -29.5t-30 -10.5h-98zM267 -277q-8 -10 -18 -16t-24 -6h-16q-21 0 -32.5 14t-3.5 34l49 116q5 12 3 23l-10 65q-3 22 10.5 31.5t30.5 9.5h77q20 0 29 -10t12 -27l10 -63q2 -13 -2 -23.5t-11 -18.5z" />
    <glyph glyph-name="Ncaron" unicode="&#x147;" horiz-adv-x="820" 
d="M429 879l55 86q11 17 31 17h76q19 0 26 -13t-5 -28l-128 -153q-6 -6 -13 -10t-17 -4h-50q-20 0 -30 15l-118 152q-11 15 -5 28t26 13h65q20 0 31 -17zM601 0q-32 0 -47 28l-332 610q-5 9 -6 8.5t0 -9.5l41 -593q2 -20 -10.5 -32t-32.5 -12h-113q-21 0 -32.5 12t-10.5 31
l33 762q2 42 44 42h94q31 0 47 -28l326 -580q2 -4 4.5 -3.5t2.5 4.5l15 582q1 42 44 42h50q20 0 32 -11t12 -31v-780q0 -19 -12 -30.5t-32 -11.5h-117z" />
    <glyph glyph-name="ncaron" unicode="&#x148;" horiz-adv-x="656" 
d="M319 697l55 87q10 16 31 16h76q19 0 26.5 -13t-5.5 -28l-128 -151q-12 -14 -30 -14h-50q-19 0 -30 14l-118 152q-11 14 -5 27t26 13h65q21 0 31 -16zM461 0q-20 0 -30 11t-9 28l18 296q5 72 -20 103t-76 31q-76 0 -114.5 -39.5t-32.5 -111.5l24 -278q2 -19 -9.5 -29.5
t-29.5 -10.5h-85q-19 0 -29.5 11t-9.5 28l13 485q2 37 40 37h42q19 0 29 -11t10 -28v-3q0 -6 5 -3q30 20 69.5 36.5t87.5 16.5q51 0 88 -16t62 -46t40 -74t21 -99l33 -294q2 -19 -9 -29.5t-30 -10.5h-98z" />
    <glyph glyph-name="Eng" unicode="&#x14a;" horiz-adv-x="820" 
d="M222 633q-5 9 -6 9t0 -10l41 -594q2 -20 -10.5 -32t-32.5 -12h-113q-21 0 -32.5 12t-10.5 32l33 763q2 42 44 42h94q31 0 47 -28l326 -581q2 -4 4.5 -3.5t2.5 4.5l15 584q2 41 44 41h50q20 0 32 -11t12 -31v-782v-5q0 -4 -0.5 -7.5t-3.5 -8.5l-65 -128q-2 -5 -3.5 -8.5
t-4.5 -8.5l-40 -67q-7 -11 -17.5 -14t-21.5 2q-15 6 -41.5 13.5t-55.5 15.5t-56.5 17.5t-43.5 22.5q-11 9 -9.5 22t11.5 21q20 16 35.5 26.5t28.5 18.5t23 13t18 10q12 8 20 18.5t16 36.5z" />
    <glyph glyph-name="eng" unicode="&#x14b;" horiz-adv-x="656" 
d="M370 -154q-5 -2 -13 -1t-13 9l-46 71q-4 6 -2.5 14.5t10.5 12.5l55 32q21 12 36 22t25 20v7l18 295q5 72 -20 102.5t-76 30.5q-76 0 -114.5 -39t-32.5 -111l24 -278q2 -18 -9.5 -28.5t-29.5 -10.5h-85q-19 0 -29.5 10.5t-9.5 28.5l13 482q2 37 40 37h42q19 0 29 -10.5
t10 -27.5v-4q0 -6 5 -3q30 21 69.5 37t87.5 16q51 0 88 -16t62.5 -46t40 -73.5t20.5 -98.5l29 -260l3 -21l1 -14v-6q0 -13 -8 -26t-32 -32.5t-69 -48t-119 -72.5z" />
    <glyph glyph-name="Omacron" unicode="&#x14c;" horiz-adv-x="932" 
d="M319 947q-30 0 -30 29v69q0 29 30 29h289q30 0 30 -29v-69q0 -29 -30 -29h-289zM466 -14q-86 0 -160 32t-129.5 90.5t-87 141.5t-31.5 185q0 101 31.5 184t86.5 141.5t129.5 90.5t160.5 32q85 0 159.5 -32t130 -90.5t87 -141.5t31.5 -184q0 -102 -31.5 -184.5t-87 -141.5
t-130 -91t-159.5 -32zM466 763q-59 0 -107.5 -22.5t-82.5 -64.5t-52.5 -103t-18.5 -138q0 -60 17.5 -100t51 -63t82 -32.5t110.5 -9.5t110.5 9.5t81.5 32.5t50.5 63t17.5 100q0 77 -18.5 138t-52.5 103t-82 64.5t-107 22.5z" />
    <glyph glyph-name="omacron" unicode="&#x14d;" horiz-adv-x="648" 
d="M177 593q-30 0 -30 29v68q0 29 30 29h289q30 0 30 -29v-68q0 -29 -30 -29h-289zM324 -14q-63 0 -112 20.5t-83.5 58t-52.5 91t-18 120.5t18 121t52.5 91.5t83.5 57.5t112 20q62 0 111.5 -20t84 -57.5t52.5 -91.5t18 -121t-18 -120.5t-52.5 -91t-84 -58t-111.5 -20.5z
M324 474q-63 0 -102 -46.5t-39 -136.5q0 -42 9 -67t27 -38.5t44 -17.5t61 -4q34 0 60.5 4.5t44.5 18t27 38.5t9 66q0 88 -39 135.5t-102 47.5z" />
    <glyph glyph-name="Ohungarumlaut" unicode="&#x150;" horiz-adv-x="932" 
d="M535 963q-11 -17 -31 -17h-34q-17 0 -24 12t1 27l84 152q10 18 31 18h53q19 0 26 -13t-3 -27zM380 963q-11 -17 -31 -17h-35q-17 0 -24.5 12t0.5 27l78 151q6 11 14 15t17 4h50q19 0 25 -13t-2 -27zM466 -14q-86 0 -160 32t-129.5 90.5t-87 141.5t-31.5 185t31.5 185
t86.5 142t129.5 91t160.5 32q85 0 159.5 -32t130 -91t87 -142t31.5 -185t-31.5 -184.5t-87 -141.5t-130 -91t-159.5 -32zM466 764q-59 0 -107.5 -22.5t-82.5 -64.5t-52.5 -103t-18.5 -139q0 -60 17.5 -99.5t51 -63t82 -32.5t110.5 -9t110.5 9t81.5 32.5t50.5 63t17.5 99.5
q0 78 -18.5 139t-52.5 103t-82 64.5t-107 22.5z" />
    <glyph glyph-name="ohungarumlaut" unicode="&#x151;" horiz-adv-x="648" 
d="M393 610q-10 -16 -31 -16h-34q-17 0 -24 11.5t1 26.5l84 150q10 18 31 18h53q19 0 26 -13t-3 -27zM238 610q-10 -16 -31 -16h-35q-17 0 -24.5 11.5t0.5 26.5l78 149q6 11 14 15t17 4h50q19 0 25 -12.5t-2 -26.5zM324 -14q-63 0 -112 20.5t-83.5 58.5t-52.5 91.5
t-18 120.5t18 121.5t52.5 92t83.5 58t112 20.5q62 0 111.5 -20.5t84 -58t52.5 -92t18 -121.5t-18 -121t-52.5 -91.5t-84 -58t-111.5 -20.5zM324 476q-63 0 -102 -46.5t-39 -136.5q0 -42 9 -67.5t27 -39t44 -18t61 -4.5q34 0 60.5 4.5t44.5 18t27 39t9 67.5q0 88 -39 135.5
t-102 47.5z" />
    <glyph glyph-name="OE" unicode="&#x152;" horiz-adv-x="1345" 
d="M703 36q-48 -29 -107 -39.5t-120 -10.5q-110 0 -189 31.5t-130 89.5t-75 140.5t-24 184.5t27.5 184.5t80.5 140.5t131 89.5t179 31.5q63 0 122.5 -6t113.5 -26q12 15 35 15h486q20 0 32 -11t12 -31v-20q0 -20 -12 -31.5t-32 -11.5h-370q-8 0 -10.5 -2t-2.5 -10v-212
q0 -9 3 -12t10 -3h353q43 0 43 -41v-39q0 -20 -11.5 -32t-31.5 -12h-353q-8 0 -10.5 -2t-2.5 -10v-141q0 -14 13 -14h381q43 0 43 -42v-143q0 -18 -11 -29.5t-32 -11.5h-497q-39 0 -44 36zM703 705q-52 28 -108 41t-119 13q-139 0 -203.5 -81.5t-61.5 -245.5q1 -65 12 -105
t39.5 -62.5t80 -30.5t133.5 -8q29 0 61 4t62.5 10.5t57.5 16t46 20.5v428z" />
    <glyph glyph-name="oe" unicode="&#x153;" horiz-adv-x="1061" 
d="M591 308q4 -70 17 -109t35.5 -58t54 -23t72.5 -4q50 0 99.5 13t112.5 45v-141q-57 -23 -110 -34t-107 -11q-151 0 -235 92q-74 -92 -206 -92q-62 0 -111.5 20t-84 57.5t-52.5 90.5t-18 119t18 119.5t52.5 90.5t84 57t111.5 20q136 0 205 -92q83 92 220 92q58 0 105 -21
t80 -51t51 -64t18 -60v-56h-412zM750 482q-29 0 -53.5 -8t-44 -20t-33 -27t-20.5 -28h281q-5 12 -15.5 26.5t-27 27t-38.5 21t-49 8.5zM324 474q-64 0 -102.5 -43.5t-38.5 -128.5q0 -82 37.5 -126t103.5 -44q64 0 102.5 44.5t38.5 125.5q0 82 -38.5 127t-102.5 45z" />
    <glyph glyph-name="Racute" unicode="&#x154;" horiz-adv-x="827" 
d="M490 983q-10 -19 -31 -19h-98q-20 0 -26 13.5t5 27.5l117 152q10 15 30 15h65q17 0 24 -12.5t-1 -26.5zM530 407q32 -20 67 -59t65 -98l100 -196q11 -21 2.5 -37.5t-35.5 -16.5h-115q-36 0 -48 31l-77 193q-21 40 -39.5 65.5t-39 39.5t-44.5 19.5t-56 5.5h-69
q-16 0 -14 -12l24 -299q2 -20 -11 -31.5t-32 -11.5h-107q-19 0 -31 11.5t-12 30.5l12 784q0 42 43 42h235q135 0 212.5 -64t77.5 -193q0 -72 -28 -124t-80 -80zM242 762q-15 0 -15 -13l-11 -216q0 -7 2.5 -9.5t11.5 -2.5h129q33 0 63 7t52.5 19.5t36 30t13.5 37.5
q0 43 -14 71.5t-37 45.5t-53 23.5t-61 6.5h-117z" />
    <glyph glyph-name="racute" unicode="&#x155;" horiz-adv-x="474" 
d="M307 801q-11 -18 -31 -18h-98q-20 0 -26 13.5t5 27.5l117 151q10 15 30 15h65q17 0 24 -12.5t-1 -26.5zM372 450q-9 2 -18 1.5t-21 -0.5q-35 0 -59 -5.5t-39 -20t-21.5 -39.5t-6.5 -65l26 -281q2 -18 -9 -29t-30 -11h-98q-20 0 -30 12t-7 31q13 72 20.5 127t11.5 107
t4 108t-2 131q-1 17 9.5 28t29.5 11h34q17 0 28 -8.5t11 -25.5q0 -7 6 -2q24 15 62.5 29.5t86.5 14.5h10.5t11.5 -1q17 -2 25 -13.5t8 -25.5q0 -13 1 -27t-2 -25t-12.5 -17.5t-29.5 -3.5z" />
    <glyph glyph-name="Rcommaaccent" unicode="&#x156;" horiz-adv-x="827" 
d="M530 400q32 -20 67 -59t65 -98l100 -196q11 -21 2.5 -37.5t-35.5 -16.5h-115q-36 0 -48 31l-77 193q-21 40 -39.5 65.5t-39 39.5t-44.5 19.5t-56 5.5h-69q-16 0 -14 -12l24 -299q2 -20 -11 -31.5t-32 -11.5h-107q-19 0 -31 11.5t-12 30.5l12 783q0 42 43 42h235
q135 0 212.5 -63.5t77.5 -192.5q0 -72 -28 -124t-80 -80zM291 -247q-8 -10 -18 -16t-24 -6h-16q-21 0 -32.5 14t-3.5 34l49 117q5 11 3 24l-10 65q-3 22 10.5 31.5t30.5 9.5h77q20 0 29 -10t12 -27l10 -64q2 -13 -2 -23t-11 -19zM242 755q-15 0 -15 -14l-11 -216
q0 -6 2.5 -9t11.5 -3h129q33 0 63 7t52.5 20t36 30.5t13.5 37.5q0 43 -14 71.5t-37 45.5t-53 23.5t-61 6.5h-117z" />
    <glyph glyph-name="rcommaaccent" unicode="&#x157;" horiz-adv-x="474" 
d="M372 437q-9 2 -18 2h-21q-35 0 -59 -5.5t-39 -20t-21.5 -39.5t-6.5 -65l26 -279q2 -19 -9 -29.5t-30 -10.5h-98q-20 0 -30 12t-7 31q13 72 20.5 126.5t11.5 106t4 107.5t-2 130q-1 18 9.5 28.5t29.5 10.5h34q17 0 28 -8.5t11 -25.5q0 -7 6 -2q24 15 62.5 29.5t86.5 14.5
h10.5t11.5 -1q17 -2 25 -13.5t8 -25.5q0 -13 1 -27t-2 -25.5t-12.5 -17.5t-29.5 -3zM104 -274q-8 -10 -18 -16t-24 -6h-16q-21 0 -32.5 14t-3.5 34l49 116q5 12 3 23l-10 65q-3 22 10.5 31.5t30.5 9.5h77q20 0 29 -10t12 -27l10 -64q2 -12 -2 -22.5t-11 -19.5z" />
    <glyph glyph-name="Rcaron" unicode="&#x158;" horiz-adv-x="827" 
d="M530 405q32 -20 67.5 -59t64.5 -97l100 -195q11 -21 2.5 -37.5t-35.5 -16.5h-115q-36 0 -48 31l-77 192q-21 40 -39.5 65.5t-39 39.5t-44.5 19t-56 5h-69q-16 0 -14 -11l24 -298q2 -20 -11 -31.5t-32 -11.5h-107q-19 0 -31 11.5t-12 30.5l12 780q0 42 43 42h157l-60 77
q-11 15 -5 28t26 13h65q20 0 31 -17l56 -86l55 86q11 17 31 17h76q19 0 26 -13t-5 -28l-82 -98q75 -26 114.5 -84t39.5 -151q0 -72 -28 -123.5t-80 -79.5zM242 759q-15 0 -15 -14l-11 -215q0 -6 2.5 -9t11.5 -3h129q33 0 63 7t52.5 20t36 30t13.5 37q0 43 -14 71.5t-37 45.5
t-53 23.5t-61 6.5h-117z" />
    <glyph glyph-name="rcaron" unicode="&#x159;" horiz-adv-x="474" 
d="M200 697l55 87q10 16 31 16h76q19 0 26.5 -13t-5.5 -28l-128 -151q-12 -14 -30 -14h-50q-19 0 -30 14l-118 152q-11 14 -5 27t26 13h65q21 0 31 -16zM372 446q-9 2 -18 2h-21q-35 0 -59 -5.5t-39 -19.5t-21.5 -39.5t-6.5 -64.5l26 -279q2 -19 -9 -29.5t-30 -10.5h-98
q-20 0 -30.5 12t-6.5 31q13 71 20.5 125.5t11 106.5t4 107.5t-1.5 129.5q-1 18 9.5 28.5t29.5 10.5h34q17 0 28 -8t11 -25q0 -8 6 -3q24 15 62.5 29.5t86.5 14.5h10.5t11.5 -1q17 -2 25 -13.5t8 -25.5q0 -12 1 -26.5t-2 -25.5t-12.5 -17.5t-29.5 -3.5z" />
    <glyph glyph-name="Sacute" unicode="&#x15a;" horiz-adv-x="773" 
d="M502 1101q-11 -18 -31 -18h-98q-20 0 -26 13t5 28l117 152q10 15 30 15h65q17 0 24 -12.5t-1 -26.5zM371 -14q-29 0 -63 2.5t-70.5 8.5t-73.5 14.5t-71 20.5q-15 5 -26 17t-9 30l12 141q2 23 18 32.5t39 -1.5q30 -15 63 -25.5t66.5 -18t65.5 -11t60 -3.5q53 0 84.5 10
t48 24t21 29t4.5 24q0 13 -4.5 26.5t-18 25.5t-39.5 23t-69 20l-71 14q-132 26 -196 83t-64 161q0 60 22.5 107t64 80t100.5 50t132 17q57 0 119.5 -9.5t123.5 -26.5q17 -5 28.5 -16.5t6.5 -31.5l-12 -51q-5 -23 -25.5 -32t-41.5 0q-55 23 -98 35t-88 12q-94 0 -139 -33.5
t-45 -91.5q0 -23 6 -41t23 -31.5t46.5 -24t76.5 -19.5l71 -13q135 -25 200.5 -89t65.5 -175q0 -133 -88.5 -198t-255.5 -65z" />
    <glyph glyph-name="sacute" unicode="&#x15b;" horiz-adv-x="564" 
d="M390 801q-11 -18 -31 -18h-98q-20 0 -26 13.5t5 27.5l117 151q10 15 30 15h65q17 0 24 -12.5t-1 -26.5zM265 -14q-84 0 -175 28q-32 11 -32 40v95q0 23 15 31.5t35 -0.5q41 -17 80.5 -26.5t78.5 -9.5q33 0 51 11t21 26t-11 29.5t-46 21.5q-38 8 -77.5 17.5t-71 27
t-51.5 47t-20 78.5q0 85 60 127.5t165 42.5q91 0 160 -22q30 -11 30 -41v-23q0 -23 -14.5 -31t-34.5 0q-31 13 -63 18.5t-67 5.5q-66 0 -95 -20.5t-29 -49.5q0 -13 4 -23t16 -18.5t34.5 -16.5t58.5 -16l31 -7q48 -11 83.5 -25t59 -34t34.5 -47t11 -63q0 -42 -17.5 -74
t-49 -54t-76 -33.5t-98.5 -11.5z" />
    <glyph glyph-name="Scedilla" unicode="&#x15e;" horiz-adv-x="773" 
d="M445 9q0 -2 2 -2l5 -6q43 -52 46.5 -98t-22.5 -76t-77.5 -37.5t-118.5 17.5q-15 6 -18.5 19t7.5 25l25 27q16 16 38 7q23 -11 41.5 -12t27 9.5t3 33t-29.5 59.5l-3 6q-29 0 -63 2.5t-70.5 8t-73.5 14t-71 20.5q-15 5 -26 17t-9 30l12 141q2 23 18 32.5t39 -1.5
q30 -15 63 -26t66.5 -18t65.5 -10.5t60 -3.5q53 0 84.5 10t48 24t21 29t4.5 24q0 13 -4.5 26t-18 25t-39.5 23t-69 20l-71 14q-133 26 -196.5 83t-63.5 160q0 60 22.5 107t64 79.5t100.5 49.5t132 17q57 0 119.5 -9.5t123.5 -26.5q17 -5 28.5 -16.5t6.5 -31.5l-12 -51
q-5 -23 -25.5 -31.5t-41.5 0.5q-55 23 -98 34.5t-88 11.5q-94 0 -139 -33.5t-45 -90.5q0 -23 6 -40.5t23 -31t46.5 -24t76.5 -19.5l71 -14q135 -26 200.5 -89t65.5 -174q0 -118 -71 -182t-209 -76z" />
    <glyph glyph-name="scedilla" unicode="&#x15f;" horiz-adv-x="564" 
d="M263 -21q-40 0 -83 6.5t-90 20.5q-32 9 -32 40v94q0 23 15 31t35 0q81 -35 159 -35q33 0 51.5 11t21 25.5t-11.5 29t-46 21.5q-38 8 -77.5 17t-71 26t-51.5 46.5t-20 78.5q0 84 60 126.5t165 42.5q93 0 160 -22q30 -11 30 -41v-23q0 -22 -14.5 -30t-34.5 0
q-62 24 -130 24q-66 0 -95 -20.5t-29 -49.5q0 -13 4 -23t16 -18.5t34.5 -16t58.5 -15.5l31 -7q49 -11 84.5 -25t58.5 -33.5t34 -46t11 -63.5q0 -64 -40 -105t-112 -57q34 -48 33.5 -90t-28 -68.5t-77.5 -32.5t-114 18q-15 5 -18.5 18.5t7.5 25.5l25 26q8 8 18 9.5t20 -2.5
q23 -9 41 -10.5t26 7.5t3.5 30.5t-27.5 59.5z" />
    <glyph glyph-name="Scaron" unicode="&#x160;" horiz-adv-x="773" 
d="M395 997l55 87q11 17 31 17h76q19 0 26 -13t-5 -28l-128 -153q-12 -14 -30 -14h-50q-19 0 -30 14l-118 153q-11 15 -5 28t26 13h65q20 0 31 -17zM371 -14q-29 0 -63 2.5t-70.5 8.5t-73.5 14.5t-71 20.5q-15 5 -26 16.5t-9 30.5l12 140q2 23 18 32.5t39 -1.5
q30 -15 63 -25.5t66.5 -18t65.5 -11t60 -3.5q53 0 84.5 10t48 24t21 29t4.5 24q0 13 -4.5 26.5t-18 26t-39.5 23.5t-69 19l-71 13q-133 24 -196.5 81.5t-63.5 162.5q0 60 22.5 107t64 79.5t100.5 49.5t132 17q57 0 119.5 -9t123.5 -28q17 -3 28.5 -15t6.5 -32l-12 -51
q-5 -23 -25.5 -31.5t-41.5 0.5q-55 23 -98 34.5t-88 11.5q-94 0 -139 -33.5t-45 -91.5q0 -23 6 -40.5t23 -31t46.5 -24t76.5 -19.5l71 -13q135 -25 200.5 -88.5t65.5 -174.5q0 -132 -88.5 -197t-255.5 -65z" />
    <glyph glyph-name="scaron" unicode="&#x161;" horiz-adv-x="564" 
d="M283 697l55 87q10 16 31 16h76q19 0 26.5 -13t-5.5 -28l-128 -151q-12 -14 -30 -14h-50q-19 0 -30 14l-118 151q-11 15 -5 28t26 13h65q21 0 31 -16zM265 -14q-42 0 -85 7t-90 21q-32 9 -32 40v94q0 23 15 31.5t35 -0.5q41 -17 80.5 -26.5t78.5 -9.5q33 0 51.5 11
t21 25.5t-11.5 29t-46 21.5q-39 8 -78 17.5t-70.5 26.5t-51.5 46.5t-20 78.5q0 84 60 127t165 43q93 0 160 -22q30 -11 30 -41v-23q0 -23 -14.5 -31t-34.5 0q-62 24 -130 24q-66 0 -95 -20t-29 -49q0 -14 4 -24t16 -18.5t34.5 -16t58.5 -15.5l31 -7q49 -11 84.5 -25
t58.5 -33.5t34 -46t11 -63.5q0 -42 -17.5 -74t-49 -53.5t-76 -33t-98.5 -11.5z" />
    <glyph glyph-name="Tcedilla" unicode="&#x162;" horiz-adv-x="875" 
d="M379 -6q-21 0 -32.5 12t-10.5 32l27 694q0 9 -3 11.5t-9 2.5l-247 -10q-22 -1 -34 11t-12 32v39q0 20 12 31t32 11h670q21 0 33 -11t12 -31v-39q0 -20 -12.5 -32t-33.5 -11l-247 10q-6 0 -9 -2.5t-3 -11.5l28 -694q1 -17 -8.5 -29t-28.5 -14q36 -50 36 -93t-27 -70.5
t-77 -34t-115 17.5q-15 6 -18.5 19t7.5 25l25 27q16 16 38 7q23 -11 41.5 -12t27 9.5t3 33t-29.5 59.5q-3 3 -5 11h-30z" />
    <glyph glyph-name="tcedilla" unicode="&#x163;" horiz-adv-x="447" 
d="M322 -7q-68 0 -111 5t-66.5 24t-30.5 57t-4 104l13 264q0 4 -1.5 6t-7.5 2h-20q-18 0 -27 11t-9 26v21q0 38 39 38h18q10 0 10 10l3 85q2 37 40 37h46q19 0 29.5 -11t9.5 -28l-3 -83q0 -10 9 -10h77q19 0 29 -10.5t10 -27.5v-21q0 -37 -39 -37h-78q-10 0 -10 -9l-4 -207
q-1 -22 -0.5 -38t0.5 -27q1 -12 2 -17.5t3 -7.5t5 -3t13 -3q10 -1 23.5 -1h31.5h28q19 0 29 -10.5t10 -27.5v-73q0 -17 -11 -27.5t-28 -10.5h-28zM176 -185q-15 6 -18.5 19t7.5 25l25 26q16 18 38 8q23 -10 42 -11t27 8.5t3 32t-30 59.5q-10 14 -4 27t26 13h26q19 0 30 -14
q43 -51 46.5 -97t-22.5 -75.5t-77.5 -37.5t-118.5 17z" />
    <glyph glyph-name="Tcaron" unicode="&#x164;" horiz-adv-x="875" 
d="M461 986l55 87q11 17 31 17h76q19 0 26 -13t-5 -28l-128 -153q-12 -14 -30 -14h-50q-19 0 -30 14l-118 153q-11 15 -5 28t26 13h65q20 0 31 -17zM524 752q-6 1 -9 -2t-3 -12l28 -695q1 -18 -9.5 -30.5t-32.5 -12.5h-119q-21 0 -32.5 12t-10.5 31l27 695q0 9 -3 12t-9 2
l-247 -9q-22 -1 -34 10.5t-12 31.5v39q0 21 12 31.5t32 10.5h670q21 0 33 -11t12 -31v-39q0 -20 -12.5 -31.5t-33.5 -10.5z" />
    <glyph glyph-name="tcaron" unicode="&#x165;" horiz-adv-x="447" 
d="M363 632q-10 -19 -31 -19h-49q-14 0 -23.5 9.5t-4.5 25.5l43 160q1 4 1.5 7t0.5 7v78q0 29 30 29h97q30 0 30 -29v-77q0 -6 -0.5 -11.5t-5.5 -13.5zM322 0q-68 0 -111 5t-66.5 24t-30.5 57t-4 104l13 264q0 5 -1.5 6.5t-7.5 1.5h-20q-18 0 -27 11.5t-9 26.5v20
q0 18 10 28.5t29 10.5h18q10 0 10 9l3 85q1 17 11.5 27.5t28.5 10.5h46q19 0 29.5 -11t9.5 -29l-3 -83q0 -9 9 -9h77q19 0 29 -11t10 -28v-20q0 -17 -10 -27.5t-29 -10.5h-78q-10 0 -10 -9l-4 -207q-1 -22 -0.5 -38t0.5 -27q1 -12 2 -17.5t3 -7.5t5 -3t13 -3q10 -1 23.5 -1
h31.5h28q19 0 29 -11t10 -28v-72q0 -17 -11 -27.5t-28 -10.5h-28z" />
    <glyph glyph-name="Tbar" unicode="&#x166;" horiz-adv-x="875" 
d="M305 882q-30 0 -30 29v69q0 29 30 29h289q30 0 30 -29v-69q0 -29 -30 -29h-289zM524 751q-12 0 -12 -14l28 -694q1 -18 -9.5 -30.5t-32.5 -12.5h-119q-21 0 -32.5 12t-10.5 31l27 694q0 14 -12 14l-247 -10q-22 -1 -34 11t-12 32v39q0 20 12 30.5t32 10.5h670
q21 0 33 -10.5t12 -30.5v-39q0 -20 -12.5 -32t-33.5 -11z" />
    <glyph glyph-name="tbar" unicode="&#x167;" horiz-adv-x="447" 
d="M40 707q-30 0 -30 29v68q0 29 30 29h289q30 0 30 -29v-68q0 -29 -30 -29h-289zM322 0q-68 0 -111 5t-66.5 24t-30.5 56.5t-4 103.5l13 263q0 5 -1.5 6.5t-7.5 1.5h-20q-18 0 -27 11.5t-9 26.5v20q0 18 10 28.5t29 10.5h18q10 0 10 9l3 85q2 37 40 37h46q19 0 29.5 -10.5
t9.5 -28.5l-3 -83q0 -9 9 -9h77q19 0 29 -11t10 -28v-20q0 -17 -10 -27.5t-29 -10.5h-78q-6 0 -8 -1.5t-2 -7.5l-4 -206q-2 -41 0 -65q0 -12 1.5 -17t3.5 -7t5 -3.5t13 -2.5q10 -2 23.5 -1.5t31.5 0.5h28q19 0 29 -11t10 -28v-72q0 -17 -11 -27.5t-28 -10.5h-28z" />
    <glyph glyph-name="Utilde" unicode="&#x168;" horiz-adv-x="816" 
d="M394 1111q-31 42 -47.5 36t-22.5 -44q-2 -12 -9 -19.5t-21 -7.5h-32q-15 0 -22.5 9t-6.5 22q4 47 22.5 80t45 47t58 8.5t61.5 -35.5l28 -27q18 -18 30.5 -14.5t14.5 46.5q1 12 8.5 20t21.5 8h32q15 0 22.5 -9t6.5 -22q-3 -45 -22 -81t-46.5 -53t-59.5 -10.5t-62 46.5z
M753 333q-2 -172 -87.5 -259.5t-256.5 -87.5q-172 0 -257.5 87.5t-87.5 259.5l-6 496q0 43 43 43h66q21 0 32.5 -12t11.5 -32l-5 -404q-2 -96 46.5 -144.5t156.5 -48.5q106 0 154.5 48.5t47.5 144.5l-4 404q0 19 10.5 31.5t32.5 12.5h65q21 0 32 -12t11 -31z" />
    <glyph glyph-name="utilde" unicode="&#x169;" horiz-adv-x="596" 
d="M275 796q-31 42 -47.5 36t-22.5 -44q-2 -11 -9 -19t-21 -8h-32q-15 0 -22.5 9t-6.5 22q4 47 22.5 79t44.5 46t57.5 8.5t62.5 -34.5l28 -26q20 -18 31.5 -14.5t13.5 45.5q1 12 8.5 20t21.5 8h32q15 0 22.5 -9t6.5 -22q-3 -45 -22 -80.5t-46.5 -52.5t-59.5 -10.5t-62 46.5z
M461 0q-20 -1 -29 10.5t-9 27.5v13q-63 -65 -158 -65q-103 0 -155 61t-52 176v297q0 18 10 28.5t29 10.5h37q18 0 29 -10t10 -30l-9 -226q-2 -54 4 -83t19.5 -43t34 -16.5t47.5 -2.5q33 0 59.5 6.5t45 24t28 47t9.5 75.5l-1 220q0 19 11.5 28.5t28.5 9.5l48 1q17 0 28 -10
t11 -28l1 -483q0 -18 -11 -27.5t-29 -10.5z" />
    <glyph glyph-name="Umacron" unicode="&#x16a;" horiz-adv-x="816" 
d="M261 908q-30 0 -30 29v69q0 29 30 29h289q30 0 30 -29v-69q0 -29 -30 -29h-289zM753 331q-2 -171 -87.5 -258t-256.5 -87q-172 0 -257.5 87t-87.5 258l-6 494q0 43 43 43h66q21 0 32.5 -12t11.5 -32l-5 -402q-2 -96 46.5 -144t156.5 -48q106 0 154.5 48t47.5 144l-4 402
q0 19 10.5 31.5t32.5 12.5h65q21 0 32 -12t11 -31z" />
    <glyph glyph-name="umacron" unicode="&#x16b;" horiz-adv-x="596" 
d="M142 593q-30 0 -30 29v68q0 29 30 29h289q30 0 30 -29v-68q0 -29 -30 -29h-289zM461 -1q-20 -1 -29 11t-9 28v12q-64 -64 -158 -64q-103 0 -155 60.5t-52 174.5v294q0 18 10 28.5t29 10.5h37q18 0 29 -10t10 -29l-9 -225q-2 -53 4 -82t19.5 -43t34 -16.5t47.5 -2.5
q33 0 59.5 6.5t45 24t28 47t9.5 74.5l-1 218q0 19 11.5 28.5t28.5 9.5l48 1q17 0 28 -10t11 -28l1 -478q0 -18 -11 -28t-29 -11z" />
    <glyph glyph-name="Uring" unicode="&#x16e;" horiz-adv-x="816" 
d="M408 880q-36 0 -67.5 13t-55 36t-37 54t-13.5 66t13.5 66t37 54t55 36t67.5 13t67.5 -13t55 -36t37 -54t13.5 -66t-13.5 -66t-37 -54t-55 -36t-67.5 -13zM753 332q-2 -172 -87.5 -259t-256.5 -87q-172 0 -257.5 87t-87.5 259l-6 496q0 43 43 43h66q21 0 32.5 -12
t11.5 -32l-5 -403q-2 -96 46.5 -144.5t156.5 -48.5q106 0 154.5 48.5t47.5 144.5l-4 403q0 20 10.5 32t32.5 12h65q21 0 32 -12t11 -31zM408 1119q-32 0 -52 -19.5t-20 -50.5t20 -50.5t52 -19.5q31 0 51.5 20.5t20.5 49.5t-20.5 49.5t-51.5 20.5z" />
    <glyph glyph-name="uring" unicode="&#x16f;" horiz-adv-x="596" 
d="M289 567q-36 0 -67.5 13t-55 35.5t-37 53t-13.5 65.5t13.5 66t37 53.5t55 35.5t67.5 13t67.5 -13t55 -35.5t37 -53.5t13.5 -66t-13.5 -65.5t-37 -53t-55 -35.5t-67.5 -13zM461 0q-20 -1 -29 10.5t-9 27.5v13q-63 -65 -158 -65q-103 0 -155 61t-52 176v297q0 38 39 38h37
q18 0 29 -10t10 -29l-9 -227q-2 -53 4 -82.5t19.5 -43t34 -16t47.5 -2.5q33 0 59.5 6.5t45 24t28 47t9.5 75.5l-1 219q0 19 11.5 28.5t28.5 9.5l48 1q17 0 28 -10t11 -28l1 -482q0 -18 -11 -27.5t-29 -10.5zM289 804q-32 0 -52 -19.5t-20 -50.5q0 -30 20 -49.5t52 -19.5
q31 0 51.5 20t20.5 49t-20.5 49.5t-51.5 20.5z" />
    <glyph glyph-name="Uhungarumlaut" unicode="&#x170;" horiz-adv-x="816" 
d="M477 924q-10 -16 -31 -16h-34q-17 0 -24.5 11.5t1.5 27.5l84 151q10 18 31 18h53q19 0 26 -13t-3 -27zM322 924q-10 -16 -31 -16h-35q-17 0 -24.5 11.5t0.5 26.5l78 151q6 11 14 15t17 4h50q19 0 25 -13t-2 -27zM753 332q-2 -172 -87.5 -259t-256.5 -87q-172 0 -257.5 87
t-87.5 259l-6 495q0 43 43 43h66q21 0 32.5 -12t11.5 -32l-5 -403q-2 -96 46.5 -144t156.5 -48q106 0 154.5 48t47.5 144l-4 403q0 19 10.5 31.5t32.5 12.5h65q21 0 32 -12.5t11 -30.5z" />
    <glyph glyph-name="uhungarumlaut" unicode="&#x171;" horiz-adv-x="596" 
d="M358 610q-10 -16 -31 -16h-34q-17 0 -24 11.5t1 26.5l84 150q10 18 31 18h53q19 0 26 -13t-3 -27zM203 610q-10 -16 -31 -16h-35q-17 0 -24.5 11.5t0.5 26.5l78 149q6 11 14 15t17 4h50q19 0 25 -12.5t-2 -26.5zM461 0q-20 0 -29 11t-9 27v13q-63 -65 -158 -65
q-103 0 -155 60.5t-52 175.5v295q0 18 10 28.5t29 10.5h37q18 0 29 -10t10 -29l-9 -226q-2 -53 4 -82t19.5 -43t34 -16.5t47.5 -2.5q33 0 59.5 6.5t45 24t28 47t9.5 74.5l-1 219q0 19 11.5 28.5t28.5 9.5l48 1q17 0 28 -10t11 -28l1 -480q0 -18 -11 -28.5t-29 -10.5h-37z
" />
    <glyph glyph-name="Uogonek" unicode="&#x172;" horiz-adv-x="816" 
d="M428 -19q-23 -35 -27.5 -57t4 -31.5t27 -8.5t41.5 12q22 9 38 -7l25 -27q11 -12 7 -25t-18 -19q-63 -24 -112 -19t-76.5 31t-30.5 67t27 89q-135 19 -201 104.5t-68 235.5l-6 494q0 43 43 43h66q21 0 32.5 -12t11.5 -32l-5 -402q-2 -96 46.5 -144t156.5 -48
q106 0 154.5 48t47.5 144l-4 402q0 19 10.5 31.5t32.5 12.5h65q21 0 32 -12t11 -31l-5 -494q-2 -166 -83 -253t-242 -92z" />
    <glyph glyph-name="uogonek" unicode="&#x173;" horiz-adv-x="596" 
d="M498 -15q-25 -37 -30 -59t3 -32t27 -8.5t42 11.5q10 4 20 2.5t18 -9.5l25 -26q11 -12 7.5 -25.5t-18.5 -18.5q-67 -25 -118.5 -17t-78.5 37t-23 75t48 97q2 1 2.5 2t1.5 2q-2 13 -1 15v12q-64 -64 -158 -64q-103 0 -155 60.5t-52 174.5v295q0 17 10 27.5t29 10.5h37
q18 0 29 -10t10 -29l-9 -225q-2 -53 4 -82t19.5 -43t34 -16.5t47.5 -2.5q33 0 59.5 6.5t45 24t28 47t9.5 74.5l-1 218q0 19 11.5 28.5t28.5 9.5l48 1q17 0 28 -10t11 -27l1 -479q0 -34 -36 -39z" />
    <glyph glyph-name="Wcircumflex" unicode="&#x174;" horiz-adv-x="1233" 
d="M610 861l-56 -87q-11 -17 -31 -17h-65q-20 0 -26 13.5t5 27.5l118 152q10 15 30 15h50q18 0 30 -14l128 -152q12 -15 5 -28.5t-26 -13.5h-76q-20 0 -31 17zM931 35q-11 -35 -46 -35h-121q-34 0 -47 30l-102 221q-5 10 -9 0l-107 -222q-14 -29 -48 -29h-131q-36 0 -46 36
l-214 778q-7 23 6 36t34 13h54q34 0 46 -34l193 -531q2 -6 5.5 -7t6.5 5l127 233q15 27 47 27h56q35 0 48 -28l114 -236q4 -10 10 2l224 536q6 15 17 24t30 9h55q21 0 34.5 -13.5t5.5 -36.5z" />
    <glyph glyph-name="wcircumflex" unicode="&#x175;" horiz-adv-x="862" 
d="M431 679l-56 -86q-10 -16 -31 -16h-65q-20 0 -26 13t5 27l118 152q11 14 30 14h50q18 0 30 -14l128 -151q13 -15 5.5 -28t-26.5 -13h-76q-21 0 -31 16zM665 31q-9 -31 -41 -31h-84q-30 0 -42 27l-65 149q-2 8 -4 0l-69 -150q-12 -26 -42 -26h-79q-32 0 -41 31l-138 480
q-6 20 4 32.5t31 12.5h40q31 0 41 -31l102 -308q2 -5 5 0l68 122q13 24 42 24h72q28 0 42 -24l73 -122q3 -5 5 0l101 308q10 31 41 31h40q21 0 31 -12.5t4 -32.5z" />
    <glyph glyph-name="Ycircumflex" unicode="&#x176;" horiz-adv-x="846" 
d="M422 948l-56 -86q-11 -17 -31 -17h-65q-20 0 -26 13t5 28l118 152q10 15 30 15h50q18 0 30 -14l128 -153q12 -15 5 -28t-26 -13h-76q-20 0 -31 17zM521 311q-8 -17 -7 -28l24 -240q2 -20 -12 -31.5t-33 -11.5h-146q-19 0 -32.5 10.5t-11.5 32.5l23 240q1 13 -6 28
l-256 500q-11 22 -1 38t35 16h65q31 0 46 -27l209 -372q5 -8 7 -7.5t6 7.5l206 372q15 27 46 27h65q27 0 35.5 -16.5t-2.5 -37.5z" />
    <glyph glyph-name="ycircumflex" unicode="&#x177;" horiz-adv-x="686" 
d="M352 678l-56 -87q-10 -16 -31 -16h-65q-20 0 -26 13t5 28l118 152q10 15 30 15h50q18 0 30 -14l128 -153q12 -15 5 -28t-26 -13h-76q-21 0 -31 16zM406 -46q-29 -74 -59.5 -121t-62 -73.5t-64 -36.5t-66.5 -10h-57q-18 0 -28.5 10t-10.5 28v73q0 17 10 27.5t29 10.5h38
q21 0 45.5 16t47 41.5t41.5 57t30 63.5q4 10 0 21l-213 443q-10 20 0.5 34.5t32.5 14.5h44q27 0 42 -23l165 -264q5 -5 7 1l125 261q12 25 42 25h47q20 0 31 -13t3 -34z" />
    <glyph glyph-name="Ydieresis" unicode="&#x178;" horiz-adv-x="846" 
d="M496 903q-30 0 -30 29v74q0 29 30 29h76q30 0 30 -29v-74q0 -29 -30 -29h-76zM271 903q-30 0 -30 29v74q0 29 30 29h77q30 0 30 -29v-74q0 -29 -30 -29h-77zM521 311q-8 -17 -7 -28l24 -240q2 -21 -12 -32t-33 -11h-146q-19 0 -32.5 10t-11.5 33l23 240q1 8 0 14t-6 14
l-256 500q-11 22 -1 38t35 16h65q31 0 46 -27l209 -372q6 -13 13 0l206 372q15 27 46 27h65q27 0 35.5 -16.5t-2.5 -37.5z" />
    <glyph glyph-name="Zacute" unicode="&#x179;" horiz-adv-x="871" 
d="M566 1092q-11 -18 -31 -18h-98q-20 0 -26 13t5 28l117 152q10 15 30 15h65q17 0 24 -12.5t-1 -26.5zM344 236q-6 -7 -4.5 -8.5t9.5 -1.5h403q20 0 32.5 -11.5t12.5 -31.5v-141q0 -19 -12.5 -30.5t-32.5 -11.5h-651q-20 0 -31.5 12t-11.5 30v140q0 14 4.5 24t13.5 20
l486 509q8 8 7 9t-11 1h-455q-21 0 -32 12t-11 31v40q0 42 43 42h666q20 0 32 -11t12 -31v-39q0 -26 -18 -45z" />
    <glyph glyph-name="zacute" unicode="&#x17a;" horiz-adv-x="609" 
d="M442 801q-11 -18 -31 -18h-98q-20 0 -26 13.5t5 27.5l117 151q10 15 30 15h65q17 0 24 -12.5t-1 -26.5zM97 0q-17 0 -28 10t-11 28v86q0 23 17 40l315 298q4 4 -2 4h-259q-18 0 -28.5 10t-10.5 28v17q0 17 10 28t29 11h373q19 0 29 -10.5t10 -28.5v-39q0 -23 -15 -39
l-280 -293q-3 -3 3 -3h263q19 0 29 -11t10 -28v-70q0 -17 -10 -27.5t-29 -10.5h-415z" />
    <glyph glyph-name="Zdotaccent" unicode="&#x17b;" horiz-adv-x="871" 
d="M414 921q-14 0 -22.5 7.5t-7.5 21.5l2 71q2 29 30 29l66 1q14 0 22 -8t8 -21l2 -72q1 -14 -7.5 -21.5t-22.5 -7.5h-70zM344 234q-5 -6 -4 -7.5t9 -1.5h403q20 0 32.5 -11.5t12.5 -31.5v-140q0 -19 -12.5 -30.5t-32.5 -11.5h-651q-20 0 -31.5 12t-11.5 30v139q0 14 4.5 24
t13.5 20l486 506q8 8 7 9t-11 1h-455q-21 0 -32 12t-11 31v39q0 42 43 42h666q20 0 32 -11t12 -31v-38q0 -26 -18 -45z" />
    <glyph glyph-name="zdotaccent" unicode="&#x17c;" horiz-adv-x="609" 
d="M290 630q-14 0 -22.5 7.5t-7.5 21.5l2 71q1 28 30 28l66 1q14 0 22 -8t8 -20l2 -72q1 -14 -7.5 -21.5t-22.5 -7.5h-70zM97 0q-17 0 -28 10t-11 28v85q0 22 17 39l315 296q4 4 -2 4h-259q-18 0 -28.5 10t-10.5 27v18q0 17 10 27.5t29 10.5h373q19 0 29 -10.5t10 -27.5v-39
q0 -23 -15 -39l-280 -290q-4 -4 3 -4h263q19 0 29 -10.5t10 -27.5v-69q0 -17 -10 -27.5t-29 -10.5h-415z" />
    <glyph glyph-name="Zcaron" unicode="&#x17d;" horiz-adv-x="871" 
d="M459 988l55 87q11 17 31 17h76q19 0 26 -13t-5 -28l-128 -153q-12 -14 -30 -14h-50q-19 0 -30 14l-118 153q-11 15 -5 28t26 13h65q20 0 31 -17zM344 235q-6 -7 -4.5 -8.5t9.5 -1.5h403q20 0 32.5 -11.5t12.5 -31.5v-140q0 -19 -12.5 -30.5t-32.5 -11.5h-651
q-20 0 -31.5 12t-11.5 30v139q0 26 18 44l486 507q8 8 7 9t-11 1h-455q-21 0 -32 12t-11 30v40q0 42 43 42h666q20 0 32 -11t12 -31v-39q0 -25 -18 -44z" />
    <glyph glyph-name="zcaron" unicode="&#x17e;" horiz-adv-x="609" 
d="M335 697l55 87q10 16 31 16h76q19 0 26.5 -13t-5.5 -28l-128 -151q-12 -14 -30 -14h-50q-19 0 -30 14l-118 152q-11 14 -5 27t26 13h65q21 0 31 -16zM97 0q-17 0 -28 10t-11 28v85q0 23 17 40l315 296q4 4 -2 4h-259q-18 0 -28.5 10t-10.5 27v18q0 17 10 27.5t29 10.5
h373q39 0 39 -38v-39q0 -23 -15 -39l-280 -291q-3 -3 3 -3h263q19 0 29 -11t10 -28v-69q0 -17 -10 -27.5t-29 -10.5h-415z" />
    <glyph glyph-name="Bhook" unicode="&#x181;" horiz-adv-x="767" 
 />
    <glyph glyph-name="Oopen" unicode="&#x186;" horiz-adv-x="829" 
d="M353 -14q-72 0 -141.5 15t-117.5 57q-11 10 -16.5 19.5t-7.5 23.5l-12 153q-1 16 5 25t15.5 11.5t19.5 0t18 -7.5q17 -12 44.5 -22t60 -18t67 -12.5t65.5 -4.5q82 0 133.5 8t80 30.5t39.5 62.5t12 105q3 164 -61.5 245.5t-203.5 81.5q-63 0 -118.5 -11t-106.5 -42
q-24 -14 -38 -6t-19 31l-12 53q-4 17 4.5 29.5t22.5 19.5q60 29 127.5 37t139.5 8q101 0 179 -31.5t131 -89.5t80.5 -140.5t27.5 -184.5t-24.5 -184.5t-75.5 -140.5t-130 -89.5t-188 -31.5z" />
    <glyph glyph-name="Chook" unicode="&#x187;" horiz-adv-x="600" 
 />
    <glyph glyph-name="chook" unicode="&#x188;" horiz-adv-x="693" 
d="M625 631q-14 -7 -25.5 -12.5t-21.5 -10.5q-20 -9 -28 -17q-10 -8 -16 -24t-9 -48l-4 -43v-2q0 -23 -15.5 -30.5t-34.5 0.5q-56 25 -119 25q-81 0 -122.5 -49.5t-41.5 -142.5q6 -62 42 -95t119 -36q29 -1 59.5 7t62.5 19q19 6 33.5 -1.5t14.5 -29.5l1 -87q0 -31 -27 -41
q-71 -27 -151 -27q-65 0 -117.5 20.5t-89.5 58.5t-57 91.5t-20 119.5q0 67 20 120.5t57.5 91t91 58t121.5 20.5q38 0 84 -8q4 35 8 57t9.5 35.5t14.5 20t24 11.5l105 31q18 0 21 -13l20 -47q4 -10 -1 -15t-8 -7z" />
    <glyph glyph-name="Dafrican" unicode="&#x189;" horiz-adv-x="1019" 
d="M251 0q-20 0 -31.5 11.5t-11.5 30.5v335h-120q-30 0 -30 29v38q0 29 30 29h120v345q0 42 43 42h211q105 0 196 -25.5t158.5 -78t106 -133.5t38.5 -192t-39 -192.5t-106.5 -134.5t-158.5 -78.5t-195 -25.5h-211zM374 739q-13 0 -13 -13v-253h197q30 0 30 -29v-38
q0 -29 -30 -29h-197v-138q0 -13 13 -13h112q64 0 123 7t103.5 29t71 62.5t26.5 106.5q0 71 -19 128t-58.5 97t-101 61.5t-145.5 21.5h-112z" />
    <glyph glyph-name="Dhook" unicode="&#x18a;" horiz-adv-x="600" 
 />
    <glyph glyph-name="Ereversed" unicode="&#x18e;" horiz-adv-x="700" 
d="M101 0q-21 0 -32 12t-11 30v143q0 41 43 41h381q7 0 10 3t3 12v140q0 8 -2.5 10t-10.5 2h-353q-20 0 -31.5 12t-11.5 32v38q0 42 43 42h353q13 0 13 14v212q0 13 -13 13h-370q-20 0 -32 11.5t-12 30.5v20q0 21 12 31.5t32 10.5h486q20 0 32 -10.5t12 -31.5v-776
q0 -19 -12 -30.5t-32 -11.5h-497z" />
    <glyph glyph-name="Schwa" unicode="&#x18f;" horiz-adv-x="630" 
d="M295 -14q-44 0 -86.5 16t-76 46.5t-54 76t-20.5 104.5v9q0 17 10.5 27.5t28.5 10.5h337q5 0 7 1.5t2 7.5q0 37 -7.5 59.5t-26 35t-49.5 17t-79 4.5q-45 0 -91 -2.5t-75 -8.5q-16 -4 -31.5 2t-15.5 29l-1 69q0 28 26 40q23 10 43.5 16.5t42.5 9.5t47.5 4t57.5 0
q294 -8 288 -272q-2 -66 -20.5 -121.5t-53.5 -95.5t-86 -62.5t-117 -22.5zM165 177q-5 0 -6.5 -1t0.5 -8q9 -48 45.5 -77t90.5 -29q62 0 101.5 31t45.5 76q1 6 -1 7.5t-7 1.5z" />
    <glyph glyph-name="Eopen" unicode="&#x190;" horiz-adv-x="627" 
d="M553 777q-6 -20 -16.5 -26.5t-30.5 -6.5q-18 0 -41 2t-48 5q-24 2 -48 3t-47 -1q-43 -4 -71 -26t-28 -79q0 -54 39 -84t123 -30h76q20 0 32 -11.5t12 -31.5v-38q0 -19 -12 -30t-32 -11q-84 0 -133.5 -16.5t-72.5 -41t-25 -53t10 -53.5q13 -28 40 -50t61 -31t73.5 -2.5
t78.5 36.5q11 9 22 9.5t19.5 -4.5t13 -15t3.5 -23l-12 -115q-2 -14 -9.5 -26.5t-25.5 -17.5q-33 -10 -78.5 -15.5t-95 -2t-98.5 19t-87.5 47.5t-62.5 84t-24 128q0 37 5 66.5t19 54t37.5 45.5t61.5 41q-26 17 -45.5 34t-33 37.5t-19.5 44.5t-5 55q2 63 27.5 105t65 68
t89 38.5t100 16t97.5 1t82 -6.5q13 -2 19.5 -7.5t8.5 -13t1.5 -15.5t-2.5 -14z" />
    <glyph glyph-name="Fhook" unicode="&#x191;" horiz-adv-x="786" 
d="M362 741q-9 0 -11.5 -2.5t-2.5 -9.5l2 -197q0 -8 2.5 -10.5t10.5 -2.5h278q43 0 43 -43v-61q0 -43 -43 -43h-272q-14 0 -13 -13l21 -321v-6.5t-1 -7.5q0 -30 -2.5 -49.5t-9 -32.5t-17 -21.5t-25.5 -17.5l-176 -99q-6 -3 -14.5 -3t-15.5 10l-55 82q-9 16 6 27
q24 20 43.5 35.5t36.5 29.5q14 12 25 23t19 23v7l23 781q2 41 43 41h426q20 0 32.5 -11t12.5 -31v-33q0 -20 -12.5 -32t-32.5 -12h-321z" />
    <glyph glyph-name="florin" unicode="&#x192;" horiz-adv-x="801" 
d="M527 430l109 8q14 1 23 -7t9 -22v-43q0 -28 -29 -30l-126 -8q-2 0 -2 -2l-30 -216q-15 -105 -38 -168t-55.5 -96t-73 -43.5t-89.5 -10.5q-13 0 -35 4t-44.5 10.5t-43 14t-30.5 14.5q-22 14 -11 38l55 119q7 14 19.5 17t24.5 -7q10 -6 22.5 -12t25 -10.5t23.5 -7.5t19 -3
q39 0 65 26t37 96l36 232l-87 -7q-14 -2 -23 6.5t-9 22.5v42q0 28 28 29l105 7q2 0 2 2l28 147q17 91 71.5 139.5t135.5 48.5q23 0 42 -3t39 -9q23 -7 23 -31v-35q0 -19 -13 -24t-27 3q-13 7 -22.5 9.5t-23.5 2.5q-42 0 -69.5 -26t-37.5 -84z" />
    <glyph glyph-name="Ghook" unicode="&#x193;" horiz-adv-x="600" 
 />
    <glyph glyph-name="Gammaafrican" unicode="&#x194;" horiz-adv-x="844" 
d="M505 207q70 -120 101 -201.5t22.5 -132t-58 -72.5t-140.5 -22q-105 0 -161 21.5t-67.5 71.5t19 132.5t99.5 204.5q-45 78 -107 183t-146 246q-5 8 -6.5 18.5t8.5 20.5l54 51q8 8 26.5 2t37.5 -33q66 -97 120.5 -179.5t102.5 -154.5q45 75 99 161.5t117 189.5
q8 13 20 15.5t23 -6.5l62 -48q11 -9 11.5 -19.5t-4.5 -20.5q-78 -142 -134.5 -246t-98.5 -182zM454 -58q1 8 -7 29t-29 63q-19 -42 -24.5 -61.5t-3.5 -27.5q0 -4 6 -5q2 -1 12 -1q5 -1 18 -1q11 0 19 -2t9 6z" />
    <glyph glyph-name="Iotaafrican" unicode="&#x196;" horiz-adv-x="600" 
 />
    <glyph glyph-name="Istroke" unicode="&#x197;" horiz-adv-x="646" 
d="M380 423q1 -60 4 -116.5t8.5 -105.5t12.5 -88t17 -63q5 -13 2.5 -22.5t-9.5 -15.5t-16.5 -9t-17.5 -3h-157q-9 0 -18 2.5t-16 8t-9.5 14.5t0.5 21q24 94 44.5 188.5t29.5 188.5h-167q-14 0 -22 8t-8 21v39q0 29 30 29h173q2 81 -7 157.5t-36 148.5q-5 12 -1 20t11.5 13.5
t17 8t16.5 2.5h97q20 0 33 -12t10 -34q-9 -57 -14 -136.5t-7 -167.5h177q30 0 30 -29v-39q0 -13 -8 -21t-22 -8h-178z" />
    <glyph glyph-name="Khook" unicode="&#x198;" horiz-adv-x="600" 
 />
    <glyph glyph-name="khook" unicode="&#x199;" horiz-adv-x="600" 
 />
    <glyph glyph-name="Nhookleft" unicode="&#x19d;" horiz-adv-x="820" 
d="M601 -9q-31 0 -47 29l-332 613q-5 9 -6 8.5t0 -9.5l41 -597v-7q5 -54 4.5 -87t3.5 -53q2 -13 9.5 -18.5t37.5 -5.5q29 0 35 -23l2 -8l35 -167q2 -11 -10 -20t-30 -2l-129 47q-2 0 -26 8q-20 7 -42 18t-40.5 26.5t-31.5 35.5t-14 44q-5 87 -4.5 143t2.5 92l32 743
q2 42 44 42h94q32 0 47 -28l326 -583q2 -4 4.5 -3.5t2.5 4.5l15 585q1 42 44 42h50q20 0 32 -11t12 -31v-785q0 -19 -12 -30.5t-32 -11.5h-117z" />
    <glyph glyph-name="Ohorn" unicode="&#x1a0;" horiz-adv-x="932" 
d="M818 670q8 7 7 21t-3 28q-4 20 -4 37t7 24t17 6l27 -2q18 -2 25 -11.5t7 -35.5q0 -50 -9.5 -81.5t-42.5 -57.5q12 -38 18.5 -79.5t6.5 -86.5q0 -101 -31.5 -183t-87 -140.5t-130 -90.5t-159.5 -32q-86 0 -160 31.5t-129.5 90t-87 140.5t-31.5 184q0 100 31.5 182.5
t86.5 141t129.5 90.5t160.5 32q114 0 206 -54t146 -154zM466 758q-59 0 -107.5 -22t-82.5 -64t-52.5 -102.5t-18.5 -137.5q0 -60 17.5 -99t51 -62.5t82 -32.5t110.5 -9t110.5 9t81.5 32.5t50.5 62.5t17.5 99q0 77 -18.5 137.5t-52.5 102.5t-82 64t-107 22z" />
    <glyph glyph-name="ohorn" unicode="&#x1a1;" horiz-adv-x="648" 
d="M557 428q8 6 6.5 19.5t-2.5 27.5q-4 20 -4 37q0 16 7 23t17 6l27 -2q18 -2 25 -11t7 -35q0 -50 -11 -82.5t-46 -58.5q7 -32 7 -79q0 -66 -18 -119t-52.5 -90.5t-84 -57.5t-111.5 -20q-63 0 -112 20t-83.5 57.5t-52.5 90.5t-18 119t18 119.5t52.5 90.5t83.5 57t112 20
q82 0 141.5 -34t91.5 -98zM324 469q-63 0 -102 -46.5t-39 -134.5q0 -41 9 -66t27 -38.5t44 -17.5t61 -4q34 0 60.5 4t44.5 17.5t27 38.5t9 66q0 88 -39 134.5t-102 46.5z" />
    <glyph glyph-name="Phook" unicode="&#x1a4;" horiz-adv-x="600" 
 />
    <glyph glyph-name="phook" unicode="&#x1a5;" horiz-adv-x="600" 
 />
    <glyph glyph-name="Esh" unicode="&#x1a9;" horiz-adv-x="600" 
d="M97 -168q-17 0 -28 10t-11 28v86q0 22 17 39l320 303l-312 325q-15 15 -15 39v38q0 18 10 28.5t29 10.5h373q19 0 29 -11t10 -28v-17q0 -18 -10.5 -28t-28.5 -10h-259q-6 0 -1 -4l317 -315q8 -8 8.5 -19.5t-8.5 -20.5l-291 -304q-4 -4 3 -4h263q19 0 29 -11t10 -28v-69
q0 -17 -10 -27.5t-29 -10.5h-415z" />
    <glyph glyph-name="Thook" unicode="&#x1ac;" horiz-adv-x="986" 
d="M404 745l-2 -1h-9l-148 -6q-18 -7 -39 -31q-11 -12 -22.5 -28t-27.5 -36q-5 -9 -13 -9.5t-12 1.5l-62 35q-18 6 -8 26l65 122q9 17 20.5 26.5t38.5 12.5q23 3 66.5 3h120.5h511q21 0 33 -11t12 -31v-38q0 -20 -12.5 -32t-33.5 -11l-247 10q-6 0 -9 -2.5t-3 -11.5l28 -690
q1 -18 -9.5 -30.5t-32.5 -12.5h-119q-21 0 -32.5 12t-10.5 31l27 690q0 9 -3 11.5t-10 2.5z" />
    <glyph glyph-name="thook" unicode="&#x1ad;" horiz-adv-x="600" 
 />
    <glyph glyph-name="Tretroflexhook" unicode="&#x1ae;" horiz-adv-x="600" 
 />
    <glyph glyph-name="Uhorn" unicode="&#x1af;" horiz-adv-x="816" 
d="M757 767q3 8 1 26q-1 5 -1.5 8.5t-0.5 5.5q-2 11 -2.5 20t-1.5 17v1q0 16 7 23.5t17 6.5l27 -2q18 -2 25 -11.5t7 -35.5q0 -29 -2.5 -52.5t-11.5 -43t-26 -35t-46 -29.5l8 12l-4 -349q-2 -170 -87.5 -256.5t-256.5 -86.5q-172 0 -257.5 86.5t-87.5 256.5l-6 492
q0 42 43 42h66q44 0 44 -43l-5 -400q-2 -94 46.5 -142.5t156.5 -48.5q106 0 154.5 48.5t47.5 142.5l-4 400q0 19 10.5 31t32.5 12h65q21 0 32 -11.5t11 -30.5v-28t-1 -26z" />
    <glyph glyph-name="uhorn" unicode="&#x1b0;" horiz-adv-x="596" 
d="M554 389q-17 -10 -25 -7t-11 6q-4 3 -5 11v3l-4 7l28 7l1 -378q0 -17 -11 -27t-29 -11l-37 -1q-20 -1 -29 10.5t-9 27.5v13q-64 -64 -158 -64q-103 0 -155 60.5t-52 172.5v292q0 38 39 38h37q18 0 29 -10t10 -28l-9 -223q-2 -53 4 -81.5t19.5 -42.5t34 -16.5t47.5 -2.5
q33 0 59.5 6.5t45 23.5t28 46.5t9.5 74.5l-1 216q0 18 11.5 27.5t28.5 9.5l48 1q17 0 28 -10t11 -27v-42l14 6q11 5 10.5 20t-2.5 31q-4 20 -4 37q0 16 7 23t17 6l27 -2q18 -2 25 -11.5t7 -35.5q0 -30 -3 -52.5t-12 -40.5t-25.5 -33t-43.5 -30z" />
    <glyph glyph-name="Upsilonafrican" unicode="&#x1b1;" horiz-adv-x="978" 
d="M539 815q6 3 16 3h335q30 0 30 -29v-113q0 -13 -8 -21t-22 -8h-46q46 -85 46 -203q0 -101 -31.5 -183t-87 -140t-130 -90t-159.5 -32q-86 0 -160.5 32t-129.5 90t-86.5 140t-31.5 183q0 60 17.5 110t46.5 92h-50q-14 0 -22 8t-8 21v113q0 29 30 29h335q30 0 30 -29v-114
q0 -27 -29 -30q-48 -4 -85.5 -16t-64 -35.5t-40 -59.5t-13.5 -89q0 -77 18.5 -137.5t52.5 -102t82.5 -63.5t107.5 -22t107 22t82 63.5t52.5 102t18.5 137.5q0 52 -13 87.5t-37.5 59t-60 35.5t-80.5 17q-11 2 -19 9.5t-8 19.5v144h16z" />
    <glyph glyph-name="Vhook" unicode="&#x1b2;" horiz-adv-x="858" 
d="M547 34q-10 -34 -47 -34h-140q-37 0 -47 34l-252 781q-8 23 3.5 37t34.5 14h63q35 0 47 -31l215 -560q5 -15 10 0l186 480q7 28 10.5 49.5t-1.5 42.5t-20.5 44t-46.5 54l-53 53q-4 6 -4 14.5t8 14.5l72 63q8 7 16 6t13 -7q49 -54 83 -91.5t55.5 -64.5t32.5 -45
t14.5 -31.5t1.5 -24.5t-6 -24z" />
    <glyph glyph-name="Yhook" unicode="&#x1b3;" horiz-adv-x="1072" 
d="M906 742q-68 -3 -102.5 -13.5t-55.5 -31.5q-11 -11 -21 -24t-21 -31q-11 -17 -24.5 -38t-30.5 -46l-1 -2l-129 -246q-9 -16 -7 -28l24 -239q2 -21 -12 -32t-33 -11h-146q-19 0 -32.5 10t-11.5 33l23 239q1 8 0 14t-6 14l-256 497q-12 23 -1.5 38.5t35.5 15.5h65
q31 0 46 -27l209 -370q4 -8 6.5 -7.5t6.5 7.5l92 166l71 176q7 18 15.5 30t24.5 20.5t41 14.5t66 10.5t100 9t142 10.5q9 1 15.5 -4.5t7.5 -14.5l8 -112q2 -11 -4.5 -17t-15.5 -7z" />
    <glyph glyph-name="yhook" unicode="&#x1b4;" horiz-adv-x="686" 
d="M774 497q-60 -5 -91 -16t-49 -29q-10 -10 -18.5 -22t-17.5 -28l-43 -77l-149 -372q-30 -74 -60 -120.5t-61.5 -73t-64 -36.5t-66.5 -10h-57q-18 0 -28.5 10t-10.5 28v72q0 17 10 27.5t29 10.5h38q21 0 45.5 15.5t47 41t41.5 57t30 63.5q5 13 0 21l-213 442
q-10 20 0.5 34.5t32.5 14.5h44q27 0 42 -23l165 -263q5 -7 7 1l51 104q0 1 2.5 9t7 20.5t10.5 28.5t12 33q7 19 15 40.5t16 45.5q5 15 10.5 25.5t18 19t34.5 15t59.5 12.5t92 12.5t133.5 14.5q8 0 14.5 -5t7.5 -14l11 -100q0 -6 -4 -13.5t-15 -8.5z" />
    <glyph glyph-name="Ezh" unicode="&#x1b7;" horiz-adv-x="600" 
 />
    <glyph glyph-name="clickdental" unicode="&#x1c0;" horiz-adv-x="293" 
d="M211 346l-15 -553q0 -13 -8 -21t-22 -8h-79q-31 0 -29 30l32 554l27 567q2 29 31 29h58q31 0 29 -30z" />
    <glyph glyph-name="clicklateral" unicode="&#x1c1;" horiz-adv-x="592" 
d="M510 346l-15 -553q0 -13 -8 -21t-22 -8h-79q-31 0 -29 30l32 554l27 567q2 29 31 29h58q31 0 29 -30zM211 346l-15 -553q0 -13 -8 -21t-22 -8h-79q-31 0 -29 30l32 554l27 567q2 29 31 29h58q31 0 29 -30z" />
    <glyph glyph-name="clickalveolar" unicode="&#x1c2;" horiz-adv-x="781" 
d="M453 409l-2 -63l-3 -97h236q30 0 30 -30v-60q0 -29 -30 -29h-238l-10 -337q-1 -13 -8.5 -21t-21.5 -8h-79q-31 0 -29 30l19 336h-229q-30 0 -30 29v60q0 30 30 30h236l6 99l3 61h-236q-30 0 -30 29v60q0 30 30 30h242l18 387q2 29 31 29h58q31 0 29 -30l-16 -386h234
q30 0 30 -30v-60q0 -29 -30 -29h-240z" />
    <glyph glyph-name="clickretroflex" unicode="&#x1c3;" horiz-adv-x="295" 
d="M96 267q-19 0 -29 11.5t-9 28.5l18 368l8 307q1 20 12.5 27t24.5 10l46 10q22 4 32.5 -9t10.5 -29l4 -316l23 -368q1 -17 -9 -28.5t-29 -11.5h-103zM104 0q-22 0 -33.5 12.5t-9.5 32.5l7 89q2 19 13.5 30t31.5 11h69q22 0 32.5 -11.5t12.5 -29.5l8 -89q2 -20 -10.5 -32.5
t-32.5 -12.5h-88z" />
    <glyph glyph-name="Acaron" unicode="&#x1cd;" horiz-adv-x="914" 
d="M471 970l55 87q11 17 31 17h76q19 0 26 -13t-5 -28l-128 -153q-12 -14 -30 -14h-50q-19 0 -30 14l-118 153q-11 15 -5 28t26 13h65q20 0 31 -17zM698 0q-17 0 -29.5 8.5t-17.5 27.5l-21 91q-3 14 -17 14h-312q-11 0 -14 -3t-4 -7l-17 -96q-3 -19 -16.5 -27t-30.5 -8h-120
q-25 0 -36.5 14.5t-1.5 37.5l319 783q12 31 47 31h60q35 0 47 -31l318 -783q10 -23 -2 -37.5t-35 -14.5h-117zM457 635l-112 -323q-4 -13 10 -13h204q14 0 10 13z" />
    <glyph glyph-name="acaron" unicode="&#x1ce;" horiz-adv-x="608" 
d="M325 697l55 87q10 16 31 16h76q19 0 26.5 -13t-5.5 -28l-128 -151q-12 -14 -30 -14h-50q-19 0 -30 14l-118 151q-11 15 -5 28t26 13h65q21 0 31 -16zM470 0q-17 0 -28.5 9.5t-11.5 27.5v11q-65 -62 -174 -62q-44 0 -80.5 13t-62.5 36.5t-40.5 57t-14.5 74.5
q0 99 67 146.5t194 47.5h102q5 0 7 -4t2 -2q0 54 -33 85.5t-108 35.5q-37 2 -72.5 -6.5t-68.5 -22.5q-19 -8 -34.5 -0.5t-15.5 30.5v20q0 30 30 41q89 31 171 31q251 0 251 -254v-278q0 -37 -39 -37h-41zM314 269q-46 0 -74.5 -4.5t-45 -12.5t-23 -20.5t-7.5 -27.5
q-1 -7 -0.5 -11.5t2.5 -10.5q8 -23 32 -29t72 -6q30 0 51 3.5t34 15.5t19 34.5t6 60.5q0 4 -1.5 6t-7.5 2h-57z" />
    <glyph glyph-name="Icaron" unicode="&#x1cf;" horiz-adv-x="361" 
d="M197 1009l55 87q11 17 31 17h76q19 0 26 -13t-5 -28l-128 -153q-12 -14 -30 -14h-50q-19 0 -30 14l-118 153q-11 15 -5 28t26 13h65q20 0 31 -17zM102 0q-9 0 -18 2.5t-16 8t-9.5 14.5t0.5 21q27 102 47.5 205t28.5 203t0 195.5t-39 182.5q-5 12 -1 20.5t11.5 13.5
t17 7.5t16.5 2.5h97q20 0 33.5 -12t9.5 -34q-8 -50 -13 -118t-7 -144t-1 -154.5t6 -148.5t13.5 -126.5t21.5 -88.5q5 -13 2.5 -22.5t-9.5 -15.5t-16.5 -9t-17.5 -3h-157z" />
    <glyph glyph-name="icaron" unicode="&#x1d0;" horiz-adv-x="287" 
d="M162 697l55 87q10 16 31 16h76q19 0 26.5 -13t-5.5 -28l-128 -151q-12 -14 -30 -14h-50q-19 0 -30 14l-118 151q-11 15 -5 28t26 13h65q21 0 31 -16zM97 -5q-18 0 -30 10t-9 31q9 60 16.5 114.5t12 111t5.5 118t-3 135.5q-1 17 11 26.5t29 9.5h42q18 0 29.5 -10t9.5 -30
q-6 -55 -9.5 -117.5t-2 -125.5t8 -122.5t20.5 -107.5q6 -22 -7 -32.5t-30 -10.5h-93z" />
    <glyph glyph-name="Ocaron" unicode="&#x1d1;" horiz-adv-x="932" 
d="M475 1051l55 87q11 17 31 17h76q19 0 26 -13t-5 -28l-128 -153q-14 -15 -30 -15h-50q-20 0 -30 15l-118 153q-11 14 -5 27.5t26 13.5h65q20 0 31 -17zM466 -14q-86 0 -160 32t-129.5 90.5t-87 141.5t-31.5 185t31.5 185t86.5 142t129.5 91t160.5 32q85 0 159.5 -32
t130 -91t87 -142t31.5 -185t-31.5 -184.5t-87 -141.5t-130 -91t-159.5 -32zM466 764q-59 0 -107.5 -22.5t-82.5 -64.5t-52.5 -103t-18.5 -139q0 -60 17.5 -99.5t51 -63t82 -32.5t110.5 -9t110.5 9t81.5 32.5t50.5 63t17.5 99.5q0 78 -18.5 139t-52.5 103t-82 64.5t-107 22.5
z" />
    <glyph glyph-name="ocaron" unicode="&#x1d2;" horiz-adv-x="648" 
d="M333 697l55 87q10 16 31 16h76q19 0 26.5 -13t-5.5 -28l-128 -151q-12 -14 -30 -14h-50q-19 0 -30 14l-118 151q-11 15 -5 28t26 13h65q21 0 31 -16zM324 -14q-63 0 -112 20.5t-83.5 58.5t-52.5 91.5t-18 120.5t18 121.5t52.5 92t83.5 58t112 20.5q62 0 111.5 -20.5
t84 -58t52.5 -92t18 -121.5t-18 -121t-52.5 -91.5t-84 -58t-111.5 -20.5zM324 476q-63 0 -102 -46.5t-39 -136.5q0 -42 9 -67.5t27 -39t44 -18t61 -4.5q34 0 60.5 4.5t44.5 18t27 39t9 67.5q0 88 -39 135.5t-102 47.5z" />
    <glyph glyph-name="Ucaron" unicode="&#x1d3;" horiz-adv-x="816" 
d="M417 1012l55 87q11 17 31 17h76q19 0 26 -13t-5 -28l-128 -153q-12 -14 -30 -14h-50q-19 0 -30 14l-118 153q-11 14 -5 27.5t26 13.5h65q20 0 31 -17zM753 332q-2 -172 -87.5 -259t-256.5 -87q-172 0 -257.5 87t-87.5 259l-6 495q0 43 43 43h66q21 0 32.5 -12t11.5 -32
l-5 -403q-2 -96 46.5 -144t156.5 -48q106 0 154.5 48t47.5 144l-4 403q0 19 10.5 31.5t32.5 12.5h65q21 0 32 -12.5t11 -30.5z" />
    <glyph glyph-name="ucaron" unicode="&#x1d4;" horiz-adv-x="596" 
d="M298 697l55 87q10 16 31 16h76q19 0 26.5 -13t-5.5 -28l-128 -151q-12 -14 -30 -14h-50q-19 0 -30 14l-118 151q-11 15 -5 28t26 13h65q21 0 31 -16zM461 0q-20 0 -29 11t-9 27v13q-63 -65 -158 -65q-103 0 -155 60.5t-52 175.5v295q0 18 10 28.5t29 10.5h37q18 0 29 -10
t10 -29l-9 -226q-2 -53 4 -82t19.5 -43t34 -16.5t47.5 -2.5q33 0 59.5 6.5t45 24t28 47t9.5 74.5l-1 219q0 19 11.5 28.5t28.5 9.5l48 1q17 0 28 -10t11 -28l1 -480q0 -18 -11 -28.5t-29 -10.5h-37z" />
    <glyph glyph-name="Udieresismacron" unicode="&#x1d5;" horiz-adv-x="816" 
d="M482 1030q-30 0 -30 30v74q0 29 30 29h76q30 0 30 -29v-74q0 -30 -30 -30h-76zM257 1030q-30 0 -30 30v74q0 29 30 29h77q30 0 30 -29v-74q0 -30 -30 -30h-77zM277 886q-30 0 -30 29v70q0 13 8 21t22 8h289q14 0 22 -8t8 -21v-70q0 -29 -30 -29h-289zM753 332
q-2 -172 -87.5 -259t-256.5 -87q-172 0 -257.5 87t-87.5 259l-6 495q0 43 43 43h66q21 0 32.5 -12t11.5 -32l-5 -402q-2 -97 46.5 -145t156.5 -48q106 0 154.5 48t47.5 145l-4 402q0 20 10.5 32t32.5 12h65q21 0 32 -12t11 -31z" />
    <glyph glyph-name="udieresismacron" unicode="&#x1d6;" horiz-adv-x="596" 
d="M382 702q-30 0 -30 29v73q0 29 30 29h76q30 0 30 -29v-73q0 -29 -30 -29h-76zM157 702q-30 0 -30 29v73q0 29 30 29h77q30 0 30 -29v-73q0 -29 -30 -29h-77zM161 570q-14 0 -22 8t-8 21v69q0 29 30 29h289q30 0 30 -29v-69q0 -13 -8 -21t-22 -8h-289zM461 0q-20 0 -29 11
t-9 27v13q-63 -65 -158 -65q-103 0 -155 61t-52 176v295q0 18 10 28.5t29 10.5h37q18 0 29 -10t10 -29l-9 -226q-2 -53 4 -82.5t19.5 -43.5t34 -16.5t47.5 -2.5q33 0 59.5 6.5t45 24t28 47t9.5 75.5l-1 219q0 19 11.5 28.5t28.5 9.5l48 1q17 0 28 -10t11 -28l1 -481
q0 -18 -11 -28.5t-29 -10.5h-37z" />
    <glyph glyph-name="Udieresisacute" unicode="&#x1d7;" horiz-adv-x="816" 
d="M524 1116q-11 -18 -31 -18h-98q-20 0 -26 13t5 28l117 152q10 15 30 15h65q17 0 24 -12.5t-1 -26.5zM482 953q-30 0 -30 29v75q0 29 30 29h76q30 0 30 -29v-75q0 -29 -30 -29h-76zM257 953q-30 0 -30 29v75q0 29 30 29h77q30 0 30 -29v-75q0 -29 -30 -29h-77zM753 333
q-2 -172 -87.5 -259.5t-256.5 -87.5q-172 0 -257.5 87.5t-87.5 259.5l-6 497q0 43 43 43h66q21 0 32.5 -12t11.5 -32l-5 -404q-2 -97 46.5 -145.5t156.5 -48.5q106 0 154.5 48.5t47.5 145.5l-4 404q0 19 10.5 31.5t32.5 12.5h65q21 0 32 -12t11 -31z" />
    <glyph glyph-name="udieresisacute" unicode="&#x1d8;" horiz-adv-x="596" 
d="M405 801q-11 -18 -31 -18h-98q-20 0 -26 13.5t5 27.5l117 151q10 15 30 15h65q17 0 24 -12.5t-1 -26.5zM363 639q-30 0 -30 30v73q0 30 30 30h76q30 0 30 -30v-73q0 -30 -30 -30h-76zM138 639q-30 0 -30 30v73q0 30 30 30h77q30 0 30 -30v-73q0 -30 -30 -30h-77zM461 0
q-20 -1 -29 10.5t-9 27.5v13q-63 -65 -158 -65q-103 0 -155 61.5t-52 176.5v297q0 18 10 28.5t29 10.5h37q18 0 29 -10t10 -30l-9 -227q-2 -53 4 -82.5t19.5 -43.5t34 -16.5t47.5 -2.5q33 0 59.5 7t45 24t28 47t9.5 76l-1 220q0 19 11.5 28.5t28.5 9.5l48 1q17 0 28 -10
t11 -28l1 -484q0 -18 -11 -27.5t-29 -10.5z" />
    <glyph glyph-name="Udieresiscaron" unicode="&#x1d9;" horiz-adv-x="816" 
d="M417 1012l55 87q11 17 31 17h76q19 0 26.5 -13.5t-5.5 -27.5l-13 -15q1 -2 1 -7v-74q0 -30 -30 -30h-63l-23 -27q-12 -14 -30 -14h-50q-19 0 -30 14l-22 28q-1 -1 -6 -1h-77q-30 0 -30 30v74q0 18 15 26q-9 14 -2 25.5t25 11.5h65q20 0 31 -17zM753 332
q-2 -172 -87.5 -259t-256.5 -87q-172 0 -257.5 87t-87.5 259l-6 495q0 43 43 43h66q21 0 32.5 -12t11.5 -32l-5 -403q-2 -96 46.5 -144t156.5 -48q106 0 154.5 48t47.5 144l-4 403q0 19 10.5 31.5t32.5 12.5h65q21 0 32 -12.5t11 -30.5z" />
    <glyph glyph-name="udieresiscaron" unicode="&#x1da;" horiz-adv-x="596" 
d="M298 697l55 87q10 16 31 16h76q19 0 26.5 -13.5t-5.5 -27.5l-13 -15q1 -1 1 -7v-73q0 -29 -30 -29h-63l-23 -27q-12 -14 -30 -14h-50q-19 0 -30 14l-22 28q-1 -1 -6 -1h-77q-30 0 -30 29v73q0 18 15 26q-9 14 -2 25.5t25 11.5h65q21 0 31 -16zM461 0q-20 0 -29 11t-9 27
v13q-63 -65 -158 -65q-103 0 -155 60.5t-52 175.5v295q0 18 10 28.5t29 10.5h37q18 0 29 -10t10 -29l-9 -226q-2 -53 4 -82t19.5 -43t34 -16.5t47.5 -2.5q33 0 59.5 6.5t45 24t28 47t9.5 74.5l-1 219q0 19 11.5 28.5t28.5 9.5l48 1q17 0 28 -10t11 -28l1 -480
q0 -18 -11 -28.5t-29 -10.5h-37z" />
    <glyph glyph-name="Udieresisgrave" unicode="&#x1db;" horiz-adv-x="816" 
d="M360 1096q-21 0 -31 18l-85 151q-8 14 -1 26.5t24 12.5h65q19 0 30 -15l117 -152q11 -15 5 -28t-26 -13h-98zM482 953q-30 0 -30 29v75q0 29 30 29h76q30 0 30 -29v-75q0 -29 -30 -29h-76zM257 953q-30 0 -30 29v75q0 29 30 29h77q30 0 30 -29v-75q0 -29 -30 -29h-77z
M753 333q-2 -172 -87.5 -259.5t-256.5 -87.5q-172 0 -257.5 87.5t-87.5 259.5l-6 497q0 43 43 43h66q21 0 32.5 -12t11.5 -32l-5 -404q-2 -97 46.5 -145.5t156.5 -48.5q106 0 154.5 48.5t47.5 145.5l-4 404q0 19 10.5 31.5t32.5 12.5h65q21 0 32 -12t11 -31z" />
    <glyph glyph-name="udieresisgrave" unicode="&#x1dc;" horiz-adv-x="596" 
d="M241 781q-21 0 -31 18l-85 150q-8 14 -1 26.5t24 12.5h65q19 0 30 -15l117 -151q11 -14 5 -27.5t-26 -13.5h-98zM363 639q-30 0 -30 30v73q0 29 30 29h76q30 0 30 -29v-73q0 -30 -30 -30h-76zM138 639q-30 0 -30 30v73q0 29 30 29h77q30 0 30 -29v-73q0 -30 -30 -30h-77z
M461 0q-20 -1 -29 10.5t-9 27.5v13q-63 -65 -158 -65q-103 0 -155 61.5t-52 176.5v297q0 18 10 28.5t29 10.5h37q18 0 29 -10t10 -30l-9 -227q-2 -53 4 -82.5t19.5 -43.5t34 -16.5t47.5 -2.5q33 0 59.5 6.5t45 24t28 47t9.5 75.5l-1 221q0 19 11.5 28.5t28.5 9.5l48 1
q17 0 28 -10t11 -28l1 -484q0 -18 -11 -27.5t-29 -10.5z" />
    <glyph glyph-name="eturned" unicode="&#x1dd;" horiz-adv-x="630" 
d="M295 -14q-44 0 -86.5 16t-76 46.5t-54 76t-20.5 104.5v9q0 17 10.5 27.5t28.5 10.5h337q5 0 7 1.5t2 7.5q0 37 -7.5 59.5t-26 35t-49.5 17t-79 4.5q-45 0 -91 -2.5t-75 -8.5q-16 -4 -31.5 2t-15.5 29l-1 69q0 28 26 40q23 10 43.5 16.5t42.5 9.5t47.5 4t57.5 0
q294 -8 288 -272q-2 -66 -20.5 -121.5t-53.5 -95.5t-86 -62.5t-117 -22.5zM165 177q-5 0 -6.5 -1t0.5 -8q9 -48 45.5 -77t90.5 -29q62 0 101.5 31t45.5 76q1 6 -1 7.5t-7 1.5z" />
    <glyph glyph-name="Adieresismacron" unicode="&#x1de;" horiz-adv-x="914" 
d="M536 907q-30 0 -30 29v74q0 29 30 29h76q30 0 30 -29v-74q0 -29 -30 -29h-76zM315 867q-30 0 -30 29v69q0 29 30 29h289q30 0 30 -29v-69q0 -29 -30 -29h-289zM311 907q-30 0 -30 29v74q0 29 30 29h77q30 0 30 -29v-74q0 -29 -30 -29h-77zM698 0q-17 0 -29.5 8.5
t-17.5 27.5l-21 91q-3 14 -17 14h-312q-11 0 -14 -3t-4 -7l-17 -96q-3 -19 -16.5 -27t-30.5 -8h-120q-25 0 -36.5 14.5t-1.5 37.5l319 782q12 31 47 31h60q35 0 47 -31l318 -782q10 -23 -2 -37.5t-35 -14.5h-117zM457 635l-112 -324q-4 -13 10 -13h204q14 0 10 13z" />
    <glyph glyph-name="adieresismacron" unicode="&#x1df;" horiz-adv-x="608" 
d="M458 692h-98v44q0 29 30 29h76q30 0 30 -29v-73q0 -8 -6.5 -16.5t-31.5 -18.5v64zM169 595q-30 0 -30 28v29l27 8q-1 0 -0.5 1t-0.5 2h77v58h148v-58h76q8 -5 12.5 -12t6.5 -13q3 -8 3 -15q0 -28 -30 -28h-289zM169 692v-67q-25 17 -29.5 25.5t-4.5 12.5v73q0 29 30 29
h77q30 0 30 -29v-44h-103zM470 -1q-17 0 -28.5 10t-11.5 28v11q-65 -62 -174 -62q-44 0 -80.5 13t-62.5 36.5t-40.5 57t-14.5 74.5q0 99 67 146.5t194 47.5h102q5 0 7 -4t2 -2q0 54 -33 85t-108 35q-37 2 -72.5 -6t-68.5 -22q-19 -8 -34.5 -0.5t-15.5 29.5v20q0 30 30 41
q89 31 171 31q251 0 251 -254v-277q0 -17 -10 -27.5t-29 -10.5h-41zM314 268q-46 0 -74.5 -4.5t-45 -12.5t-23 -20t-7.5 -28q-2 -15 2 -21q8 -23 32 -29t72 -6q30 0 51 3.5t34 15.5t19 34.5t6 60.5q0 4 -1.5 5.5t-7.5 1.5h-57z" />
    <glyph glyph-name="Gcaron" unicode="&#x1e6;" horiz-adv-x="897" 
d="M470 1022l55 87q11 17 31 17h76q19 0 26 -13t-5 -28l-128 -153q-14 -15 -30 -15h-50q-20 0 -30 15l-118 153q-11 14 -5 27.5t26 13.5h65q20 0 31 -17zM823 75q-139 -89 -321 -89q-104 0 -186.5 30.5t-139.5 88.5t-87.5 141.5t-30.5 188.5q0 106 34.5 189t94.5 141
t141 88.5t174 30.5q14 0 36 0.5t57 -3.5q35 -3 82.5 -10.5t116.5 -24.5q10 -2 15.5 -11.5t7.5 -20.5l12 -76q3 -21 -7 -26t-33 0q-67 16 -115 24t-81 12q-32 4 -51.5 4.5t-29.5 0.5q-65 0 -118.5 -17t-92.5 -54t-60 -95t-19 -140q1 -86 10.5 -136t39.5 -75t87 -31.5
t153 -6.5q57 0 99 8t63 24q3 1 3 8v73q0 2 -3 2h-149q-15 0 -24 9t-9 24v75q0 14 9 22.5t24 8.5h282q14 0 23 -8.5t9 -22.5v-312q0 -21 -16 -34z" />
    <glyph glyph-name="gcaron" unicode="&#x1e7;" horiz-adv-x="644" 
d="M342 696l55 87q11 17 31 17h76q19 0 26 -13t-5 -28l-128 -153q-14 -15 -30 -15h-50q-20 0 -30 15l-118 153q-11 14 -5 27.5t26 13.5h65q20 0 31 -17zM444 39q-27 -22 -64 -35t-83 -13q-54 0 -98.5 21t-75.5 59t-48 91t-17 117q0 63 17 116t48 91t75.5 59t98.5 21
q51 0 92 -15.5t70 -50.5q3 -2 3 -1l2 21q2 17 13.5 25t27.5 8h42q19 0 29.5 -10.5t9.5 -28.5l-14 -443q-4 -126 -21 -208.5t-50 -131t-82.5 -67.5t-118.5 -19q-42 0 -81 5t-75 17q-30 9 -30 40v106q0 23 15.5 30.5t34.5 -0.5q31 -14 61 -19.5t61 -5.5q30 0 54 10.5t43 34.5
t32.5 62t24.5 93zM284 469q-128 0 -128 -185q4 -44 11 -68.5t20.5 -36t35 -14t54.5 -2.5q36 0 63 3t45 15t27.5 36t9.5 66q0 94 -37 140t-101 46z" />
    <glyph glyph-name="Oslashacute" unicode="&#x1fe;" horiz-adv-x="932" 
d="M548 982q-11 -18 -31 -18h-98q-20 0 -26 13.5t5 27.5l117 152q10 15 30 15h65q17 0 24 -12.5t-1 -26.5zM466 -15q-49 0 -88 10l-2 -6q-10 -31 -42 -29l-62 2q-20 1 -31.5 14.5t-2.5 34.5l15 34q-90 55 -142.5 154.5t-52.5 235.5q0 102 31.5 185t86.5 142t129.5 91
t160.5 32q79 0 148 -27l20 46q5 13 15.5 20.5t27.5 6.5l24 -1q18 -1 30 -13t4 -34l-30 -76q78 -58 123.5 -152.5t45.5 -219.5q0 -102 -31.5 -185t-87 -142t-130 -91t-159.5 -32zM473 230q60 1 107.5 10.5t79.5 33t49 62.5t17 99q0 81 -19 142t-54 103zM466 764
q-59 0 -107.5 -22.5t-82.5 -64.5t-52.5 -103t-18.5 -139q0 -88 35 -132t101 -60l223 503q-44 18 -98 18z" />
    <glyph glyph-name="oslashacute" unicode="&#x1ff;" horiz-adv-x="648" 
d="M460 800q-11 -18 -31 -18h-98q-20 0 -26 13.5t5 27.5l117 152q10 15 30 15h65q17 0 24 -12.5t-1 -26.5zM324 -19q-10 0 -18.5 0.5t-17.5 1.5l-68 -168q-13 -30 -42 -29l-62 2q-20 1 -31.5 14.5t-2.5 34.5l84 190q-54 37 -81 100.5t-27 148.5q0 68 18 122.5t52.5 92.5
t83.5 58.5t112 20.5q21 0 41 -2t39 -7l74 168q6 14 16 21.5t27 6.5l24 -1q18 -1 30.5 -13t3.5 -34l-79 -198q90 -78 90 -235q0 -68 -18 -122.5t-52.5 -93t-84 -59t-111.5 -20.5zM359 163q25 2 45 8.5t33.5 21t20.5 38.5t7 60q0 59 -16 95zM324 477q-63 0 -102 -47.5
t-39 -138.5q0 -53 13.5 -78.5t36.5 -36.5l131 295q-18 6 -40 6z" />
    <glyph glyph-name="Scommaaccent" unicode="&#x218;" horiz-adv-x="773" 
d="M371 -21q-29 0 -63 2.5t-70.5 8.5t-73.5 14.5t-71 20.5q-15 5 -26 16.5t-9 30.5l12 140q2 23 18 32.5t39 -1.5q30 -15 63 -26t66.5 -17.5t65.5 -10t60 -3.5q53 0 84.5 10t48 23.5t21 28.5t4.5 24q0 13 -4.5 26.5t-18 25.5t-39.5 23t-69 20l-71 14q-133 26 -196.5 83
t-63.5 160q0 60 22.5 107t64 80t100.5 50t132 17q57 0 119.5 -9.5t123.5 -26.5q17 -5 28.5 -16.5t6.5 -31.5l-12 -51q-5 -23 -25.5 -32t-41.5 0q-55 23 -98 35t-88 12q-94 0 -139 -33.5t-45 -91.5q0 -23 6 -40.5t23 -31t46.5 -24t76.5 -19.5l71 -14q135 -26 200.5 -89
t65.5 -174q0 -132 -88.5 -197t-255.5 -65zM286 -282q-8 -10 -18 -16t-24 -6h-16q-21 0 -32.5 14t-3.5 34l49 117q5 11 3 24l-10 65q-3 22 10.5 32t30.5 10h77q20 0 29.5 -10.5t11.5 -26.5l10 -65q2 -13 -2 -23t-11 -19z" />
    <glyph glyph-name="scommaaccent" unicode="&#x219;" horiz-adv-x="564" 
d="M265 -24q-84 0 -175 28q-32 11 -32 40v95q0 22 15 30.5t35 -0.5q84 -35 159 -35q33 0 51.5 11t21 25.5t-11.5 29t-46 21.5q-38 8 -77.5 17t-71 26.5t-51.5 47t-20 78.5q0 85 60 127.5t165 42.5q93 0 160 -22q30 -11 30 -41v-23q0 -23 -14.5 -31t-34.5 0q-31 13 -63 18.5
t-67 5.5q-66 0 -95 -20t-29 -49q0 -14 4 -24t16 -18.5t34.5 -16t58.5 -15.5l31 -7q48 -11 83.5 -25t59 -34t34.5 -47t11 -63q0 -41 -17.5 -73t-49 -54t-76 -33.5t-98.5 -11.5zM227 -285q-8 -10 -18 -16t-24 -6h-16q-21 0 -32.5 14t-3.5 34l49 116q5 12 3 23l-10 65
q-3 22 10.5 31.5t30.5 9.5h77q20 0 29 -10t12 -27l10 -63q2 -13 -2 -23.5t-11 -18.5z" />
    <glyph glyph-name="uni021A" unicode="&#x21a;" horiz-adv-x="875" 
d="M524 746q-6 0 -9 -2.5t-3 -11.5l28 -696q1 -19 -9.5 -31t-32.5 -12h-119q-21 0 -32.5 11.5t-10.5 31.5l27 696q0 9 -3 11.5t-9 2.5l-247 -10q-22 -1 -34 11t-12 32v39q0 20 12 31t32 11h670q21 0 33 -11t12 -31v-39q0 -20 -12.5 -32t-33.5 -11zM350 -274q-8 -10 -18 -16
t-24 -6h-16q-21 0 -32.5 14t-3.5 34l49 117q5 11 3 24l-10 65q-3 22 10.5 31.5t30.5 9.5h77q20 0 29.5 -10t11.5 -26l10 -65q2 -13 -2 -23t-11 -19z" />
    <glyph glyph-name="uni021B" unicode="&#x21b;" horiz-adv-x="447" 
d="M322 -9q-68 0 -111 5t-66.5 24t-30.5 57t-4 104l13 265q0 5 -1.5 6.5t-7.5 1.5h-20q-18 0 -27 11.5t-9 26.5v20q0 18 10 28.5t29 10.5h18q10 0 10 9l3 86q2 37 40 37h46q19 0 29.5 -11t9.5 -28l-3 -84q0 -9 9 -9h77q19 0 29 -11t10 -28v-20q0 -17 -10 -27.5t-29 -10.5
h-78q-10 0 -10 -9l-4 -208q-2 -41 0 -65q0 -11 1.5 -16.5t3.5 -7.5t5 -3.5t13 -2.5q10 -2 23.5 -1.5t31.5 0.5h28q19 0 29 -11t10 -28v-73q0 -17 -11 -27.5t-28 -10.5h-28zM214 -265q-8 -10 -18 -16t-24 -6h-16q-21 0 -32.5 14t-3.5 34l49 117q5 12 3 23l-10 65
q-3 22 10.5 31.5t30.5 9.5h77q20 0 29 -10t12 -27l10 -64q2 -13 -2 -23t-11 -19z" />
    <glyph glyph-name="uni0228" unicode="&#x228;" horiz-adv-x="700" 
d="M102 -6q-20 0 -32 12t-12 30v782q0 20 12 31t32 11h486q20 0 32 -11t12 -31v-20q0 -20 -12 -31.5t-32 -11.5h-370q-13 0 -13 -13v-213q0 -14 13 -14h353q43 0 43 -42v-39q0 -20 -11.5 -32t-31.5 -12h-353q-8 0 -10.5 -2t-2.5 -10v-141q0 -9 3 -12t10 -3h381q43 0 43 -42
v-144q0 -18 -11 -30t-32 -12h-147q36 -50 36 -93t-27 -70t-77 -33.5t-115 17.5q-15 6 -18.5 19t7.5 25l25 27q16 16 38 7q23 -11 41.5 -12t27 9.5t3 33t-29.5 59.5q-3 3 -5 11h-256z" />
    <glyph glyph-name="uni0229" unicode="&#x229;" horiz-adv-x="630" 
d="M311 -19q-258 24 -253 273q1 67 20 123.5t54 97t86 63t117 22.5q44 0 86.5 -16t76 -47.5t54 -77t20.5 -105.5v-9q0 -17 -10.5 -27.5t-28.5 -10.5h-337q-9 0 -9 -10q0 -37 7.5 -60t26 -35.5t49.5 -17t79 -4.5q22 0 45.5 0.5t45.5 1.5t41 3t34 6q16 4 31.5 -2t15.5 -30
l1 -70q0 -28 -26 -40q-33 -15 -62 -21t-66 -8q30 -47 27 -87.5t-30.5 -65.5t-76.5 -30t-112 18q-15 5 -18.5 18.5t7.5 25.5l25 26q8 8 18 9.5t20 -2.5q23 -10 41.5 -11t26.5 9t3 32t-29 59zM335 483q-31 0 -56.5 -8.5t-44.5 -23.5t-31 -34.5t-15 -41.5q-1 -6 1 -7.5t7 -1.5
l269 1q5 0 6.5 1t-0.5 8q-9 49 -45.5 78t-90.5 29z" />
    <glyph glyph-name="uni022A" unicode="&#x22a;" horiz-adv-x="932" 
d="M557 1035q-30 0 -30 30v74q0 29 30 29h76q30 0 30 -29v-74q0 -30 -30 -30h-76zM332 1035q-30 0 -30 30v74q0 29 30 29h77q30 0 30 -29v-74q0 -30 -30 -30h-77zM335 891q-30 0 -30 29v70q0 13 8 21t22 8h289q14 0 22 -8t8 -21v-70q0 -29 -30 -29h-289zM466 -14
q-86 0 -160 32t-129.5 90.5t-87 142t-31.5 185.5t31.5 184.5t86.5 141.5t129.5 91t160.5 32q85 0 159.5 -32t130 -91t87 -141.5t31.5 -184.5t-31.5 -185t-87 -142t-130 -91t-159.5 -32zM466 764q-59 0 -107.5 -22t-82.5 -64t-52.5 -103t-18.5 -139q0 -61 17.5 -100.5t51 -63
t82 -32.5t110.5 -9t110.5 9t81.5 32.5t50.5 63t17.5 100.5q0 78 -18.5 139t-52.5 103t-82 64t-107 22z" />
    <glyph glyph-name="uni022B" unicode="&#x22b;" horiz-adv-x="648" 
d="M398 745q-14 0 -22 8t-8 21v74q0 29 30 29h76q30 0 30 -29v-74q0 -13 -8 -21t-22 -8h-76zM173 745q-14 0 -22 8t-8 21v74q0 29 30 29h77q30 0 30 -29v-74q0 -13 -8 -21t-22 -8h-77zM177 597q-14 0 -22 8t-8 21v69q0 29 30 29h289q30 0 30 -29v-69q0 -13 -8 -21t-22 -8
h-289zM324 -14q-63 0 -112 20.5t-83.5 58.5t-52.5 92t-18 121t18 121.5t52.5 92t83.5 58t112 20.5q62 0 111.5 -20.5t84 -58t52.5 -92t18 -121.5t-18 -121t-52.5 -92t-84 -58.5t-111.5 -20.5zM324 477q-63 0 -102 -46.5t-39 -136.5q0 -42 9 -67.5t27 -39t44 -18t61 -4.5
q34 0 60.5 4.5t44.5 18t27 39t9 67.5q0 88 -39 135.5t-102 47.5z" />
    <glyph glyph-name="uni0241" unicode="&#x241;" horiz-adv-x="600" 
d="M440 533q-29 -30 -47 -51.5t-28 -41t-13 -40t-3 -48.5l2 -314q0 -20 -12.5 -31.5t-32.5 -11.5h-93q-20 0 -32.5 11.5t-12.5 31.5v270q0 56 2.5 93t11.5 64t26.5 49t48.5 48l58 49q45 38 61 66t11 54q-7 39 -32 63t-76 24q-70 0 -162 -53q-21 -12 -40 -4t-19 35v25
q0 32 28 47q101 53 213 53q55 0 100 -15t77 -42.5t49.5 -66.5t17.5 -87t-29 -88.5t-74 -88.5z" />
    <glyph glyph-name="uni0242" unicode="&#x242;" horiz-adv-x="600" 
d="M460 152q-33 -33 -51 -53t-26.5 -31.5t-10 -16.5t-1.5 -9q1 -8 1.5 -16t-3.5 -15q-5 -10 -15 -12t-18 -2h-71h-24t-17 1q-20 3 -26.5 12.5t-7.5 23.5q-1 16 1 31.5t11 32.5t27 37t48 45l58 48q45 37 61 64.5t11 52.5q-7 38 -32 62t-76 24q-71 0 -162 -52
q-21 -12 -40 -4.5t-19 34.5v24q0 31 28 46q101 52 213 52q55 0 100 -15t77 -42t49.5 -65t17.5 -84q0 -47 -28.5 -87t-74.5 -86z" />
    <glyph glyph-name="uni0243" unicode="&#x243;" horiz-adv-x="929" 
d="M706 467q45 -10 76.5 -31.5t51 -50.5t28.5 -64.5t9 -73.5q0 -60 -23.5 -106t-66.5 -77.5t-103.5 -47.5t-133.5 -16h-281q-21 0 -32 12t-11 30v189h-132q-30 0 -30 29v39q0 13 8 21t22 8h132v490q0 42 43 42h229q136 0 213.5 -56.5t77.5 -162.5q0 -127 -77 -174zM380 756
q-14 0 -14 -14v-211q0 -14 14 -14h132q82 0 118 28t36 83q0 57 -36.5 92.5t-117.5 35.5h-132zM380 393q-14 0 -14 -12v-53h192q14 0 22 -8t8 -21v-39q0 -29 -30 -29h-192v-49q0 -13 14 -13h158q66 0 105.5 20.5t54.5 50t7 62.5t-38 58q-39 33 -129 33h-158z" />
    <glyph glyph-name="uni0244" unicode="&#x244;" horiz-adv-x="1142" 
d="M909 408l-1 -79q-2 -170 -87.5 -256.5t-256.5 -86.5q-172 0 -257.5 86.5t-87.5 256.5l-1 79h-130q-30 0 -30 29v42q0 29 30 29h129l-4 312q0 43 43 43h66q21 0 32.5 -12t11.5 -32l-4 -311h403l-3 311q0 20 10.5 32t32.5 12h65q21 0 32 -12t11 -31l-3 -312h144
q30 0 30 -29v-42q0 -29 -30 -29h-145zM361 408q3 -90 51.5 -134.5t151.5 -44.5q106 0 154 48.5t48 142.5v2l15 -14h-420z" />
    <glyph glyph-name="uni024B" unicode="&#x24b;" horiz-adv-x="721" 
d="M552 -142l132 140q11 11 22.5 11t21.5 -11l54 -63q18 -19 -3 -40l-128 -120l-4 -4l-15 -13l-27 -25q-1 -2 -2 -2.5t-2 -1.5l-24 -21q-18 -15 -40 -15l-84 -1q-19 0 -29.5 11t-8.5 30l36 300q-57 -57 -155 -57q-54 0 -98 21.5t-75 60.5t-48 92.5t-17 117.5t17 117.5
t48 92.5t75 60.5t98 21.5q105 0 164 -66q4 -4 4 -1l4 20q3 15 13.5 24t27.5 9h39q20 0 30 -11t9 -29zM285 469q-63 0 -95.5 -47t-32.5 -141q0 -45 7.5 -71t22.5 -39.5t39 -17t57 -3.5q34 0 60.5 4t44.5 17.5t27 39.5t9 70q0 94 -38 141t-101 47z" />
    <glyph glyph-name="uni024C" unicode="&#x24c;" horiz-adv-x="1062" 
d="M765 404q32 -20 67 -59t65 -97l100 -194q11 -21 2.5 -37.5t-35.5 -16.5h-115q-36 0 -48 31l-77 191q-21 40 -39.5 65t-39 39t-44.5 19.5t-56 5.5h-69q-16 0 -14 -12l24 -296q2 -20 -11 -31.5t-32 -11.5h-107q-19 0 -31 11.5t-12 30.5l5 309h-210q-30 0 -30 29v108
q0 29 30 29h212l5 302q0 41 43 41h235q135 0 212.5 -62.5t77.5 -191.5q0 -72 -28 -123.5t-80 -78.5zM477 756q-15 0 -15 -14l-11 -214q0 -10 6 -11h161q29 0 55 7.5t45 20t30 29.5t11 36q0 43 -14 71.5t-37 45t-53 23t-61 6.5h-117z" />
    <glyph glyph-name="aturned" unicode="&#x250;" horiz-adv-x="608" 
d="M187 190q-5 0 -7 4t-2 2q0 -54 33 -84.5t108 -34.5q37 -2 72.5 6t68.5 22q19 8 34.5 0.5t15.5 -29.5v-20q0 -30 -30 -40q-89 -30 -171 -30q-251 0 -251 250v274q0 16 10 26.5t29 10.5h41q17 0 28.5 -9.5t11.5 -27.5v-11q64 61 174 61q44 0 80.5 -12.5t62.5 -36
t40.5 -56.5t14.5 -74q0 -97 -67 -144t-194 -47h-102zM442 367q-8 22 -32 28t-72 6q-30 0 -51 -3.5t-34 -15t-19 -34t-6 -59.5q0 -4 1.5 -5.5t7.5 -1.5h57q46 0 74.5 4t44.5 12t22.5 20t8.5 28q1 6 0.5 10.5t-2.5 10.5z" />
    <glyph glyph-name="ascript" unicode="&#x251;" horiz-adv-x="638" 
d="M460 535q2 37 40 37h41q19 0 28.5 -10.5t10.5 -27.5q1 -30 -2 -60.5t-7 -65.5t-7 -77t-3 -94q0 -57 2.5 -93.5t5.5 -58.5t5.5 -32.5t2.5 -16.5q0 -17 -10.5 -27t-28.5 -10h-41q-40 0 -40 37v12q-29 -32 -69 -47t-91 -15q-54 0 -98 21t-75.5 59.5t-48.5 91t-17 115.5
t17 116t48.5 91t75.5 59.5t98 21.5q51 0 91.5 -15t69.5 -47q1 -1 1 -2zM290 470q-60 0 -97 -44t-40 -129v-13.5t2 -12.5q11 -55 41 -78t92 -23q33 0 57.5 4t40.5 16.5t23.5 36t7.5 62.5q0 94 -32 137.5t-95 43.5z" />
    <glyph glyph-name="ascriptturned" unicode="&#x252;" horiz-adv-x="638" 
d="M179 497q0 1 1 2q29 32 69.5 47t91.5 15q54 0 98 -21.5t75.5 -59.5t48.5 -91t17 -116t-17 -115.5t-48.5 -91t-75.5 -59.5t-98 -21q-51 0 -91 15t-69 47v-12q0 -37 -40 -37h-41q-18 0 -28.5 10t-10.5 27q0 6 2.5 16.5t5.5 32.5t5.5 58.5t2.5 93.5q0 52 -3.5 94t-7 77
t-6.5 65.5t-2 60.5q1 17 10.5 27.5t28.5 10.5h41q38 0 40 -37zM348 470q-63 0 -95 -43.5t-32 -137.5q0 -39 7.5 -62.5t23.5 -36t40.5 -16.5t57.5 -4q62 0 92 23t41 78q2 7 2 12.5v13.5q-3 85 -40 129t-97 44z" />
    <glyph glyph-name="bhook" unicode="&#x253;" horiz-adv-x="624" 
d="M169 519q31 30 70.5 41.5t87.5 11.5q54 0 98 -21.5t75.5 -60.5t48.5 -93t17 -118q0 -65 -17 -118.5t-48.5 -92.5t-75.5 -60.5t-98 -21.5t-92.5 7.5t-64.5 22.5t-42 36.5t-26 50.5q-13 18 -19 71t-11 123q-5 75 -8 165.5t-7 186.5l-26 131q-4 19 -2 33t21 34t62 52.5
t121 88.5q16 7 26 -6l50 -65q7 -8 4 -15.5t-7 -11.5l-53 -35q-40 -26 -56.5 -45t-21.5 -39zM338 472q-63 0 -100 -46t-37 -140q5 -36 10 -60.5t18.5 -39.5t38.5 -21t70 -4q39 1 65 13t41 31.5t20.5 45t4.5 53.5q-3 84 -37 126t-94 42z" />
    <glyph glyph-name="oopen" unicode="&#x254;" horiz-adv-x="579" 
d="M231 -14q-78 0 -144 25q-29 11 -29 40v26q0 22 15.5 29.5t34.5 -0.5q58 -24 119 -24q81 0 122.5 49.5t41.5 140.5q-6 62 -42 93.5t-119 35.5q-29 2 -59.5 -6t-62.5 -19q-19 -6 -33.5 1.5t-14.5 29.5l-1 85q0 30 27 41q70 27 151 27q65 0 117.5 -20.5t89.5 -58t57 -90.5
t20 -118q0 -66 -20 -119t-57.5 -90.5t-91.5 -57.5t-121 -20z" />
    <glyph glyph-name="ccurl" unicode="&#x255;" horiz-adv-x="746" 
 />
    <glyph glyph-name="dtail" unicode="&#x256;" horiz-adv-x="644" 
d="M466 822q1 17 11.5 27.5t28.5 10.5h41q19 0 29 -11t10 -28l-9 -776q0 -20 1.5 -34.5t10.5 -24.5t27 -15t50 -5q27 0 40 -2.5t18 -6.5q5 -5 6.5 -10.5t1.5 -9.5q1 -3 0.5 -6.5t-0.5 -8.5t0.5 -9.5t0.5 -8.5t-0.5 -9.5t-2.5 -10.5q-4 -8 -15.5 -13.5t-37.5 -5.5
q-31 0 -50.5 0.5t-32 1.5t-18.5 1.5t-10 0.5q-33 0 -54 7t-34 19t-18 28t-5 35q0 40 3 67q-1 2 -1 9v11q-57 -63 -160 -63q-54 0 -98 21.5t-75.5 60.5t-48.5 93t-17 119q0 64 17 118t48.5 93t75.5 60.5t98 21.5q104 0 161 -64q1 0 1 -1zM290 477q-60 0 -97 -45t-40 -133v-13
t2 -12q11 -56 41 -80t92 -24q33 0 57.5 4t40.5 17t23.5 37t7.5 64q0 96 -32 140.5t-95 44.5z" />
    <glyph glyph-name="dhook" unicode="&#x257;" horiz-adv-x="644" 
d="M464 746l-7 117q-2 22 4 37.5t29.5 33.5t68.5 43t122 66q8 7 16 3t12 -10l42 -72q2 -5 1 -12.5t-9 -12.5l-57 -28q-37 -18 -55.5 -33t-26.5 -30q-8 -14 -13 -34l-6 -47l-8 -730q0 -17 -10.5 -27t-28.5 -10h-41q-19 0 -29.5 10.5t-10.5 27.5v11q-57 -63 -160 -63
q-54 0 -98 21.5t-75.5 60.5t-48.5 93t-17 119q0 64 17 118t48.5 93t75.5 60.5t98 21.5q51 0 91.5 -15t69.5 -48q1 -1 1 -2zM290 481q-60 0 -97 -44.5t-40 -132.5v-13.5t2 -12.5q11 -56 41 -80t92 -24q33 0 57.5 4t40.5 17t23.5 37t7.5 64q0 96 -32 140.5t-95 44.5z" />
    <glyph glyph-name="ereversed" unicode="&#x258;" horiz-adv-x="630" 
d="M284 -14q-32 -1 -57.5 -0.5t-47.5 3.5t-43 9.5t-43 17.5q-26 12 -26 40l1 69q0 23 15.5 29t31.5 2q29 -6 75 -8.5t91 -2.5q48 0 79 4.5t49.5 17t26 35t7.5 59.5q0 6 -2 7.5t-7 1.5h-337q-18 0 -28.5 10.5t-10.5 27.5v9q0 59 20.5 104.5t54 76t76 46.5t86.5 16
q66 0 117 -22.5t86 -62.5t53.5 -95.5t20.5 -121.5q6 -264 -288 -272zM295 484q-54 0 -90.5 -29t-45.5 -77q-2 -7 -0.5 -8t6.5 -1l269 -1q5 0 7 1.5t1 7.5q-6 45 -45.5 76t-101.5 31z" />
    <glyph glyph-name="schwa" unicode="&#x259;" horiz-adv-x="630" 
d="M295 -14q-44 0 -86.5 16t-76 46.5t-54 76t-20.5 104.5v9q0 17 10.5 27.5t28.5 10.5h337q5 0 7 1.5t2 7.5q0 37 -7.5 59.5t-26 35t-49.5 17t-79 4.5q-45 0 -91 -2.5t-75 -8.5q-16 -4 -31.5 2t-15.5 29l-1 69q0 28 26 40q23 10 43.5 16.5t42.5 9.5t47.5 4t57.5 0
q294 -8 288 -272q-2 -66 -20.5 -121.5t-53.5 -95.5t-86 -62.5t-117 -22.5zM165 177q-5 0 -6.5 -1t0.5 -8q9 -48 45.5 -77t90.5 -29q62 0 101.5 31t45.5 76q1 6 -1 7.5t-7 1.5z" />
    <glyph glyph-name="schwahook" unicode="&#x25a;" horiz-adv-x="746" 
 />
    <glyph glyph-name="eopen" unicode="&#x25b;" horiz-adv-x="453" 
d="M132 301q-30 20 -47 44t-15 63q1 40 17.5 67t42.5 44t58.5 25t65.5 10.5t63.5 1t53.5 -3.5q10 -1 15.5 -5.5t7 -10.5t1 -12t-1.5 -10l-9 -27q-5 -14 -12.5 -19.5t-22.5 -5.5q-12 0 -26.5 1.5t-30.5 3.5q-29 4 -59 1q-26 -3 -42.5 -14.5t-16.5 -45.5q0 -31 23 -49t75 -18
h49q16 0 24.5 -9t8.5 -23v-24q0 -13 -8.5 -22t-24.5 -9q-53 0 -83.5 -10t-44.5 -24.5t-14.5 -31t5.5 -29.5q8 -17 24 -30t37 -18.5t45 -1.5t48 22q9 6 17 6.5t14.5 -3.5t10.5 -11.5t3 -16.5l-7 -72q-1 -10 -7 -19t-20 -13q-21 -6 -50.5 -9.5t-61.5 -1.5t-64 12t-57.5 30.5
t-41.5 53.5t-16 83q0 45 14.5 75.5t59.5 55.5z" />
    <glyph glyph-name="eopenreversed" unicode="&#x25c;" horiz-adv-x="453" 
d="M321 301q45 -25 59.5 -55.5t14.5 -75.5q0 -49 -16 -82.5t-41.5 -54.5t-57.5 -30.5t-64 -11.5t-62 1.5t-50 9.5q-14 4 -20 13t-7 19l-7 72q-1 9 3 16.5t10.5 11.5t15 3.5t16.5 -6.5q24 -18 48 -22t45 1.5t37 18.5t24 30q6 13 5.5 29.5t-14.5 31t-44.5 24.5t-83.5 10
q-16 0 -24.5 9t-8.5 22v24q0 14 8.5 23t24.5 9h49q52 0 75 18t23 49q0 34 -16.5 45.5t-42.5 14.5q-30 3 -59 -1q-16 -2 -30.5 -3.5t-26.5 -1.5q-15 0 -22.5 5.5t-12.5 19.5l-9 27q-5 7 -1.5 21.5t23.5 16.5q23 2 54 3.5t63.5 -1t64.5 -10.5t58 -25t42.5 -44t18.5 -67
q2 -39 -15 -63t-47 -44z" />
    <glyph glyph-name="eopenreversedhook" unicode="&#x25d;" horiz-adv-x="746" 
 />
    <glyph glyph-name="eopenreversedclosed" unicode="&#x25e;" horiz-adv-x="746" 
 />
    <glyph glyph-name="jdotlessstroke" unicode="&#x25f;" horiz-adv-x="746" 
 />
    <glyph glyph-name="ghook" unicode="&#x260;" horiz-adv-x="746" 
 />
    <glyph glyph-name="gscript" unicode="&#x261;" horiz-adv-x="644" 
d="M444 37q-27 -22 -64 -35t-83 -13q-54 0 -98.5 21t-75.5 58.5t-48 90t-17 115.5t17 116t48 90.5t75.5 58.5t98.5 21q51 0 92 -15.5t70 -49.5q3 -3 3 -1l2 20q2 17 13.5 25t27.5 8h42q19 0 29.5 -10.5t9.5 -28.5l-14 -439q-4 -126 -21 -208t-50 -130t-82.5 -67t-118.5 -19
q-42 0 -81 5t-75 17q-30 9 -30 40v105q0 22 15.5 29.5t34.5 -0.5q31 -14 61 -19.5t61 -5.5t55 10.5t43 34t32.5 61.5t23.5 93zM284 463q-63 0 -95.5 -44.5t-32.5 -138.5q4 -44 11 -68.5t20.5 -36t35 -14t54.5 -2.5q36 0 63 3t45 15t27.5 36t9.5 66q0 94 -37 139t-101 45z
" />
    <glyph glyph-name="uni0262" unicode="&#x262;" horiz-adv-x="603" 
d="M435 190h-87q-25 0 -25 24v44q0 10 6 17.5t19 7.5h172q11 0 18.5 -7t7.5 -18v-184q0 -16 -14 -25q-85 -53 -197 -53q-65 0 -116.5 18.5t-87 53.5t-54.5 85.5t-19 113.5q0 64 21.5 114.5t59 85.5t88 53.5t108.5 18.5h21.5t35.5 -2q21 -2 50.5 -6t71.5 -15q15 -3 18 -24
l7 -45q3 -17 -5 -21.5t-26 0.5q-80 19 -117.5 21.5t-49.5 2.5q-38 0 -70 -10t-55 -31t-35 -54.5t-11 -79.5q1 -50 6 -78.5t22.5 -43t51 -18t91.5 -3.5q69 0 95 18z" />
    <glyph glyph-name="gammalatinsmall" unicode="&#x263;" horiz-adv-x="746" 
 />
    <glyph glyph-name="ramshorn" unicode="&#x264;" horiz-adv-x="746" 
 />
    <glyph glyph-name="hturned" unicode="&#x265;" horiz-adv-x="641" 
d="M545 -263q-1 -37 -40 -37h-41q-19 0 -29 11t-10 28q1 59 2.5 91.5t3.5 47t3.5 17t2.5 2.5t2 2.5t0.5 17.5t-2 47t-4.5 92q0 -1 -1 -2q-63 -64 -160 -64q-103 0 -152 61t-53 175l-9 295q-1 17 9.5 28t29.5 11h64q18 0 29 -10.5t10 -28.5l-14 -292q-2 -43 4.5 -71t20.5 -44
t34.5 -22.5t46.5 -6.5q33 0 59.5 11.5t45.5 32.5t28.5 51t8.5 66l-9 275q-1 17 9.5 28t29.5 11h80q18 0 29 -10.5t10 -28.5z" />
    <glyph glyph-name="hhook" unicode="&#x266;" horiz-adv-x="746" 
 />
    <glyph glyph-name="henghook" unicode="&#x267;" horiz-adv-x="746" 
 />
    <glyph glyph-name="istroke" unicode="&#x268;" horiz-adv-x="287" 
d="M112 630q-14 0 -22.5 7.5t-7.5 21.5l2 71q1 28 30 28l66 1q14 0 22 -8t8 -20l2 -72q1 -14 -7.5 -21.5t-22.5 -7.5h-70zM200 249q2 -58 8.5 -112t18.5 -99q6 -22 -7 -32.5t-30 -10.5h-93q-18 0 -30 10t-9 31q9 57 16.5 108t12.5 105h-157q-11 0 -18.5 7t-7.5 18v42
q0 13 7.5 19t18.5 6h162q2 40 0.5 82.5t-3.5 90.5q-1 17 11 26.5t29 9.5h42q17 0 29 -10t10 -30q-5 -39 -7 -81.5t-4 -87.5h159q11 0 18.5 -6t7.5 -19v-42q0 -11 -7.5 -18t-18.5 -7h-158z" />
    <glyph glyph-name="iotalatin" unicode="&#x269;" horiz-adv-x="600" 
 />
    <glyph glyph-name="uni026A" unicode="&#x26a;" horiz-adv-x="278" 
d="M91 0q-14 0 -25.5 8t-6.5 27q16 60 28.5 120.5t17.5 119t0 114t-23 106.5q-5 14 5 24t27 10h59q13 0 25 -8t7 -26q-5 -29 -8 -69.5t-4.5 -85t-0.5 -90.5t4 -87.5t8 -74.5t13 -51q4 -10 2 -17t-7.5 -11.5t-12.5 -6.5t-12 -2h-96z" />
    <glyph glyph-name="lmiddletilde" unicode="&#x26b;" horiz-adv-x="525" 
d="M337 298q2 -38 5 -73.5t9 -67.5q1 -5 2.5 -8.5t6.5 -3.5h61q40 0 40 -38v-70q0 -17 -11 -27t-29 -10h-165q-20 0 -28.5 11t-10.5 26q-9 91 -5.5 178.5t7.5 168.5q-21 16 -37 7.5t-22 -51.5q-2 -12 -10 -20.5t-23 -8.5h-37q-16 0 -25 10t-7 24q4 43 19 76t36.5 52.5
t49.5 24.5t58 -7q1 57 -3 108.5t-19 96.5q-4 12 -0.5 20t10 13t15 7t14.5 2h52q20 0 28 -11.5t10 -25.5q8 -58 7.5 -133.5t-0.5 -156.5q10 -2 19 7.5t11 47.5q2 31 33 31h37q16 0 24.5 -10t7.5 -24q-3 -36 -14 -67t-28.5 -53.5t-40 -34.5t-47.5 -10z" />
    <glyph glyph-name="lbelt" unicode="&#x26c;" horiz-adv-x="746" 
 />
    <glyph glyph-name="lhookretroflex" unicode="&#x26d;" horiz-adv-x="746" 
 />
    <glyph glyph-name="lezh" unicode="&#x26e;" horiz-adv-x="746" 
 />
    <glyph glyph-name="mturned" unicode="&#x26f;" horiz-adv-x="968" 
d="M440 96q-34 -48 -76 -72t-103 -24q-47 0 -82 17.5t-59.5 48.5t-37.5 73.5t-14 92.5l-10 299q-1 14 7.5 21.5t22.5 7.5h103q15 0 23 -9t6 -22l-32 -309q0 -67 17.5 -95t65.5 -28q31 0 54.5 11.5t40 32.5t25.5 49.5t11 62.5l14 279q1 28 31 28h93q14 0 22.5 -8.5t6.5 -22.5
l-42 -314q-5 -36 0.5 -59.5t19 -37.5t34 -19.5t45.5 -5.5q26 0 48 12.5t38 34t25 50.5t9 62v280q0 28 30 28h105q14 0 22 -8t7 -21l-33 -491q-1 -28 -31 -28h-59q-14 0 -22.5 9t-6.5 22l2 14q-30 -29 -66.5 -43t-78.5 -14q-57 0 -103 24t-72 72z" />
    <glyph glyph-name="mlonglegturned" unicode="&#x270;" horiz-adv-x="968" 
d="M440 77q-34 -48 -76 -72.5t-103 -24.5q-47 0 -82 17.5t-59.5 49t-37.5 74.5t-14 94l-10 303q-1 14 7.5 21.5t22.5 7.5h103q15 0 23 -9t6 -22l-32 -313q0 -69 17.5 -97t65.5 -28q31 0 54.5 12t40 33t25.5 50t11 63l14 283q1 28 31 28h93q14 0 22.5 -9t6.5 -23l-42 -318
q-5 -36 0.5 -59.5t19 -37.5t34 -20t45.5 -6q26 0 48 12.5t38 34.5t25 51.5t9 63.5v282q0 29 30 29h105q31 0 29 -30l-32 -485q2 -48 8.5 -91.5t16.5 -80.5q6 -22 -7 -32.5t-30 -10.5h-93q-18 0 -30.5 10t-8.5 31q8 48 14.5 92.5t10.5 86.5q-29 -29 -65.5 -43t-78.5 -14
q-57 0 -103 24.5t-72 72.5z" />
    <glyph glyph-name="mhook" unicode="&#x271;" horiz-adv-x="746" 
 />
    <glyph glyph-name="nhookleft" unicode="&#x272;" horiz-adv-x="796" 
d="M601 -6q-20 0 -30 10.5t-9 28.5l18 295q5 72 -20 102.5t-76 30.5q-76 0 -114.5 -39t-32.5 -111l23 -266q2 -22 -3.5 -37.5t-28.5 -35.5t-69 -49t-126 -77q-5 -2 -13 -1t-13 9l-46 71q-4 6 -2.5 14.5t10.5 12.5l55 32q29 17 46.5 30t27.5 26l13 475q2 37 40 37h42
q19 0 29 -10.5t10 -27.5v-4q0 -6 5 -3q30 21 69.5 37t87.5 16q51 0 88 -16t62 -46t40 -73.5t21 -98.5l33 -292q2 -19 -9 -29.5t-30 -10.5h-98z" />
    <glyph glyph-name="nhookretroflex" unicode="&#x273;" horiz-adv-x="746" 
 />
    <glyph glyph-name="uni0274" unicode="&#x274;" horiz-adv-x="556" 
d="M394 160l9 333q1 30 32 30h31q16 0 24 -8.5t8 -21.5v-463q0 -14 -9 -22t-23 -8h-71q-23 0 -34 20l-193 344l23 -332q1 -14 -7.5 -23t-23.5 -9h-69q-15 0 -24.5 8t-8.5 24l21 451q1 13 9 22t23 9h57q23 0 34 -20z" />
    <glyph glyph-name="obarred" unicode="&#x275;" horiz-adv-x="648" 
d="M324 -14q-63 0 -112 20t-83.5 57.5t-52.5 90.5t-18 119t18 119.5t52.5 90.5t83.5 57t112 20q62 0 111.5 -20t84 -57t52.5 -90.5t18 -119.5t-18 -119t-52.5 -90.5t-84 -57.5t-111.5 -20zM324 469q-54 0 -88.5 -31.5t-46.5 -91.5h270q-12 60 -46.5 91.5t-88.5 31.5z
M189 230q12 -43 45 -55.5t90 -12.5t89.5 13t44.5 55h-269z" />
    <glyph glyph-name="uni0276" unicode="&#x276;" horiz-adv-x="1345" 
d="M688 12q-29 -15 -64 -21t-70 -6q-68 0 -117.5 19.5t-81.5 55t-47 85.5t-15 112q0 61 17 111.5t50.5 86t82 55t111.5 19.5q38 0 73.5 -3.5t67.5 -14.5q11 8 24 8h296q14 0 23.5 -8t9.5 -23v-12q0 -14 -9.5 -22.5t-23.5 -8.5h-225q-2 0 -2 -2v-126q0 -3 2 -3h215
q32 0 32 -31v-23q0 -14 -9 -22.5t-23 -8.5h-215q-2 0 -2 -2v-84q0 -4 2 -4h232q14 0 23 -7.5t9 -22.5v-85q0 -13 -8.5 -21.5t-23.5 -8.5h-303q-24 0 -31 18zM686 417q-30 17 -62.5 23.5t-69.5 6.5q-160 0 -156 -190q1 -37 7 -60t22.5 -36t46.5 -17.5t80 -4.5q34 0 71.5 8
t60.5 20v250z" />
    <glyph glyph-name="philatin" unicode="&#x278;" horiz-adv-x="746" 
 />
    <glyph glyph-name="rturned" unicode="&#x279;" horiz-adv-x="474" 
d="M381 46q1 -17 -9.5 -27.5t-29.5 -10.5h-34q-17 0 -28 8t-11 25q0 6 -6 2q-24 -15 -62.5 -29t-86.5 -14h-10.5t-11.5 1q-17 2 -25 13t-8 25q0 12 -1 26t2 25t12.5 17.5t29.5 3.5q9 -2 18 -2h21q34 0 58 5.5t39 19.5t22 38.5t7 63.5l-26 275q-2 18 9 28.5t30 10.5h98
q20 0 30 -12t7 -30q-13 -70 -20.5 -123.5t-11.5 -104.5t-4 -106t2 -128z" />
    <glyph glyph-name="rlonglegturned" unicode="&#x27a;" horiz-adv-x="474" 
d="M381 38q1 -18 -9.5 -28.5t-29.5 -10.5h-34q-17 0 -28 8.5t-11 25.5q0 6 -6 2q-24 -15 -62.5 -29.5t-86.5 -14.5h-10.5t-11.5 1q-17 2 -25 13.5t-8 25.5q0 13 -1 27t2 25t12.5 17.5t29.5 3.5q9 -2 18 -2h21q34 0 59 5.5t40.5 20t22 40t4.5 64.5l-26 589q-1 17 9 28t30 11
h98q20 0 30.5 -12t6.5 -31q-9 -47 -15 -109.5t-10 -132.5t-6.5 -144t-3.5 -145t-0.5 -134.5t1.5 -113.5z" />
    <glyph glyph-name="rhookturned" unicode="&#x27b;" horiz-adv-x="746" 
 />
    <glyph glyph-name="rhook" unicode="&#x27d;" horiz-adv-x="746" 
 />
    <glyph glyph-name="rfishhook" unicode="&#x27e;" horiz-adv-x="746" 
 />
    <glyph glyph-name="uni0280" unicode="&#x280;" horiz-adv-x="560" 
d="M362 246q20 -14 39 -36t36 -54l61 -116q8 -14 1.5 -27t-26.5 -13h-71q-25 0 -34 22l-47 114q-10 24 -20 38.5t-22.5 22t-27 10t-33.5 2.5h-43q-2 0 -2 -1l14 -177q2 -14 -7.5 -22.5t-24.5 -8.5h-64q-14 0 -23.5 8t-9.5 22l8 463q0 30 32 30h143q85 0 133.5 -38.5
t48.5 -117.5q0 -42 -16 -72.5t-45 -48.5zM176 450q-3 0 -3 -2l-7 -128q0 -1 3 -1h78q42 0 68.5 15t26.5 35q0 47 -28 64t-67 17h-71z" />
    <glyph glyph-name="Rsmallinverted" unicode="&#x281;" horiz-adv-x="560" 
d="M361 279q29 -18 45 -48.5t16 -72.5q0 -79 -48.5 -118t-133.5 -39h-143q-16 0 -24 8.5t-8 21.5l-8 464q0 14 9.5 22t23.5 8h65q14 0 24 -8.5t8 -22.5l-15 -177q0 -1 3 -1h42q19 0 33.5 2.5t27 10t22.5 21.5t20 38l47 116q5 11 14.5 16t20.5 5h70q21 0 27 -13t-2 -27
l-61 -116q-17 -32 -36.5 -54.5t-38.5 -35.5zM168 206q-3 0 -3 -1l7 -128q0 -2 3 -2h72q19 0 36 3.5t30 13t20.5 25t7.5 39.5q0 20 -26 35t-68 15h-79z" />
    <glyph glyph-name="shook" unicode="&#x282;" horiz-adv-x="746" 
 />
    <glyph glyph-name="esh" unicode="&#x283;" horiz-adv-x="746" 
d="M738 751q-1 -2 -1.5 -4.5t-2.5 -4.5q-9 -10 -23 -10q-12 0 -31 3q-11 2 -24.5 4.5t-32.5 4.5q-10 1 -22 1t-23 -2.5t-20.5 -6.5t-13.5 -10q-26 -40 -38 -99t-17 -134q-5 -73 -6 -152t-6 -157q-5 -76 -19 -147t-45 -126t-83.5 -88.5t-134.5 -33.5q-66 0 -102.5 4.5
t-50.5 17.5q-9 8 -10.5 18t0.5 18l12 32q9 24 15 36.5t14 17.5q11 7 26 5q6 -1 13 -3t17 -4q40 -10 77.5 2.5t66.5 45.5q26 29 40 77t22 111t11.5 132t8.5 138q4 66 12.5 131.5t27.5 118t51 87.5t84 41q24 3 60 1.5t69 -6.5q40 -6 64 -22t18 -30z" />
    <glyph glyph-name="dotlessjstrokehook" unicode="&#x284;" horiz-adv-x="746" 
 />
    <glyph glyph-name="tretroflexhook" unicode="&#x288;" horiz-adv-x="746" 
 />
    <glyph glyph-name="ubar" unicode="&#x289;" horiz-adv-x="596" 
d="M537 442q24 -3 24 -28v-38q0 -28 -30 -28h-9l15 14l1 -324q0 -17 -11 -27t-29 -11l-37 -1q-20 -1 -29 10.5t-9 27.5v13q-64 -64 -158 -64q-103 0 -155 60.5t-52 172.5v129q-27 1 -27 28v38q0 26 27 29v66q0 38 39 38h37q18 0 29 -10t10 -28l-2 -66h239v67q0 18 11.5 27.5
t28.5 9.5l48 1q17 0 28 -10t11 -27v-69zM411 348h-245l-2 -62q-2 -52 4.5 -80.5t19.5 -42t33.5 -16t47.5 -2.5q33 0 59.5 6.5t45 23.5t28 46t9.5 74v53z" />
    <glyph glyph-name="upsilonlatin" unicode="&#x28a;" horiz-adv-x="978" 
d="M539 736q6 3 16 3h335q30 0 30 -29v-113q0 -13 -8 -21t-22 -8h-46q46 -85 46 -203q0 -101 -31.5 -183t-87 -140t-130 -90t-159.5 -32q-86 0 -160.5 32t-129.5 90t-86.5 140t-31.5 183q0 60 17.5 110t46.5 92h-50q-14 0 -22 8t-8 21v113q0 29 30 29h335q30 0 30 -29v-114
q0 -27 -29 -30q-48 -4 -85.5 -16t-64 -35.5t-40 -59.5t-13.5 -89q0 -77 18.5 -137.5t52.5 -102t82.5 -63.5t107.5 -22t107 22t82 63.5t52.5 102t18.5 137.5q0 52 -13 87.5t-37.5 59t-60 35.5t-80.5 17q-11 2 -19 9.5t-8 19.5v144h16z" />
    <glyph glyph-name="vhook" unicode="&#x28b;" horiz-adv-x="746" 
 />
    <glyph glyph-name="vturned" unicode="&#x28c;" horiz-adv-x="683" 
d="M543 0q-31 0 -43 26l-157 325q-2 8 -4 0l-157 -325q-12 -26 -42 -26h-45q-20 0 -31 13t-3 33l193 473q12 28 42 28h90q30 0 42 -28l193 -473q8 -20 -1.5 -33t-31.5 -13h-45z" />
    <glyph glyph-name="wturned" unicode="&#x28d;" horiz-adv-x="862" 
d="M727 0q-31 0 -41 30l-101 303q-2 5 -5 0l-73 -120q-14 -23 -42 -23h-72q-28 0 -42 23l-68 121q-4 3 -5 -1l-102 -303q-11 -30 -41 -30h-40q-21 0 -31 12t-4 32l138 473q9 30 41 30h79q30 0 42 -26l69 -147q2 -7 4 -1l65 147q12 27 42 27h84q32 0 41 -30l137 -473
q6 -20 -4 -32t-31 -12h-40z" />
    <glyph glyph-name="yturned" unicode="&#x28e;" horiz-adv-x="686" 
d="M551 688q-22 0 -46 -15.5t-46.5 -41t-41.5 -57t-30 -62.5q-5 -13 0 -21l213 -440q10 -20 -0.5 -34.5t-32.5 -14.5h-44q-27 0 -42 23l-165 262q-5 7 -7 -1l-125 -258q-12 -26 -42 -26h-47q-20 0 -31 13.5t-3 33.5l219 548q29 73 59.5 120t62 73t64 36t66.5 10h57
q18 0 28.5 -10t10.5 -28v-72q0 -17 -10 -27.5t-29 -10.5h-38z" />
    <glyph glyph-name="uni028F" unicode="&#x28f;" horiz-adv-x="648" 
d="M398 221q-5 -10 -4 -17l17 -170q0 -15 -10.5 -24.5t-26.5 -9.5h-105q-14 0 -26 8.5t-10 26.5l17 169q2 8 -4 18l-184 351q-10 19 -0.5 31.5t29.5 12.5h46q25 0 37 -21l150 -262q1 -1 2 0l148 262q12 21 37 21h46q20 0 28.5 -13.5t-0.5 -30.5z" />
    <glyph glyph-name="zretroflexhook" unicode="&#x290;" horiz-adv-x="746" 
 />
    <glyph glyph-name="zcurl" unicode="&#x291;" horiz-adv-x="746" 
 />
    <glyph glyph-name="ezh" unicode="&#x292;" horiz-adv-x="746" 
 />
    <glyph glyph-name="glottalstop" unicode="&#x294;" horiz-adv-x="600" 
d="M440 533q-29 -30 -47 -51.5t-28 -41t-13 -40t-3 -48.5l2 -314q0 -20 -12.5 -31.5t-32.5 -11.5h-93q-20 0 -32.5 11.5t-12.5 31.5v270q0 56 2.5 93t11.5 64t26.5 49t48.5 48l58 49q45 38 61 66t11 54q-7 39 -32 63t-76 24q-70 0 -162 -53q-21 -12 -40 -4t-19 35v25
q0 32 28 47q101 53 213 53q55 0 100 -15t77 -42.5t49.5 -66.5t17.5 -87t-29 -88.5t-74 -88.5z" />
    <glyph glyph-name="glottalstopreversed" unicode="&#x295;" horiz-adv-x="600" 
d="M483 765q-92 53 -162 53q-51 0 -76 -24t-32 -63q-5 -26 11 -54t61 -66l58 -49q31 -26 48.5 -48t26.5 -49t11.5 -64t2.5 -93v-270q0 -20 -12.5 -31.5t-32.5 -11.5h-93q-20 0 -32.5 11.5t-12.5 31.5l2 314q0 28 -3.5 48.5t-13 40t-27.5 41t-47 51.5q-45 48 -74 88.5
t-29 88.5t17.5 87t49.5 66.5t77 42.5t100 15q112 0 213 -53q28 -15 28 -47v-25q0 -27 -19 -35t-40 4z" />
    <glyph glyph-name="bilabialclick" unicode="&#x298;" horiz-adv-x="932" 
d="M466 -14q-86 0 -160 31.5t-129.5 90t-87 140.5t-31.5 184q0 100 31.5 182.5t86.5 141t129.5 90.5t160.5 32q85 0 159.5 -32t130 -90.5t87 -141t31.5 -182.5q0 -101 -31.5 -183t-87 -140.5t-130 -90.5t-159.5 -32zM466 758q-59 0 -107.5 -22t-82.5 -64t-52.5 -102.5
t-18.5 -137.5q0 -60 17.5 -99t51 -62.5t82 -32.5t110.5 -9t110.5 9t81.5 32.5t50.5 62.5t17.5 99q0 77 -18.5 137.5t-52.5 102.5t-82 64t-107 22zM431 431q-14 0 -22.5 7.5t-7.5 21.5l2 71q2 29 30 29l66 1q14 0 22 -8t8 -21l2 -72q1 -14 -7.5 -21.5t-22.5 -7.5h-70z" />
    <glyph glyph-name="uni0299" unicode="&#x299;" horiz-adv-x="525" 
d="M375 284q50 -14 71 -51.5t21 -82.5q0 -37 -15 -65.5t-42 -47.5t-65 -29t-83 -10h-171q-15 0 -24 8t-9 22v463q0 15 9.5 22.5t23.5 7.5h139q85 0 134 -34.5t49 -101.5q0 -33 -9 -58.5t-29 -42.5zM162 448q-3 0 -3 -3v-125q0 -3 3 -3h80q49 0 68.5 15.5t19.5 44.5
q0 32 -20 51.5t-68 19.5h-80zM162 233q-3 0 -3 -3v-118q0 -2 3 -2h96q39 0 61.5 11.5t30.5 28t3 34t-20 30.5q-22 19 -75 19h-96z" />
    <glyph glyph-name="Gsmallhook" unicode="&#x29b;" horiz-adv-x="686" 
d="M373 536q11 43 18.5 69.5t15.5 41.5t18 21.5t25 9.5l107 22q6 0 12 -2q5 -2 6.5 -6t1.5 -6l15 -51q0 -14 -12 -19q-14 -6 -26 -10.5t-23 -8.5q-10 -4 -17 -7t-13 -8q-9 -7 -16 -18.5t-14 -34.5q17 -3 37.5 -7t45.5 -10q14 -4 19 -24l7 -45q3 -17 -5 -21.5t-26 -0.5
q-80 18 -117.5 21.5t-49.5 3.5q-38 0 -70 -10t-55 -31.5t-35 -55t-11 -81.5q1 -50 6 -79t22.5 -43.5t51 -18t91.5 -3.5q69 0 95 18l-1 41h-87q-25 0 -25 24v45q0 9 6 17t19 8h172q11 0 18.5 -7t7.5 -18v-187q0 -16 -14 -25q-86 -54 -197 -54q-65 0 -116.5 19t-87 54
t-54.5 86t-19 115t21 115.5t58 87t87 54.5t108 19z" />
    <glyph glyph-name="uni029C" unicode="&#x29c;" horiz-adv-x="552" 
d="M414 -1q-14 0 -23 8t-9 22v109q0 3 -3 3h-208q-2 0 -2 -3v-109q0 -14 -9.5 -22t-23.5 -8h-46q-14 0 -23.5 8t-9.5 22l7 463q0 15 9.5 22.5t23.5 7.5h39q14 0 23.5 -8t9.5 -22v-227q0 -3 2 -3h208q3 0 3 3v227q0 14 9 22t23 8h40q14 0 23.5 -7.5t9.5 -22.5l5 -463
q0 -13 -8 -21.5t-23 -8.5h-47z" />
    <glyph glyph-name="jcrossedtail" unicode="&#x29d;" horiz-adv-x="746" 
 />
    <glyph glyph-name="uni029F" unicode="&#x29f;" horiz-adv-x="488" 
d="M425 29q-1 -12 -9 -20.5t-23 -8.5h-302q-14 0 -23.5 8t-9.5 22l7 463q0 15 9.5 22.5t23.5 7.5h36q14 0 23.5 -8t9.5 -22l-5 -345q0 -2 3 -2h233q16 0 24.5 -9t7.5 -23z" />
    <glyph glyph-name="glottalstopstroke" unicode="&#x2a1;" horiz-adv-x="657" 
d="M558 356q30 0 30 -29v-39q0 -13 -8 -21t-22 -8h-153l2 -221q0 -20 -12.5 -31.5t-32.5 -11.5h-93q-20 0 -32.5 11.5t-12.5 31.5v221h-136q-14 0 -22 8t-8 21v39q0 29 30 29h136q1 41 5 70t13.5 51.5t26.5 42t44 42.5l58 49q45 38 61 66t11 54q-7 39 -32 63t-76 24
q-70 0 -162 -53q-21 -12 -40 -4t-19 35v25q0 32 28 47q101 53 213 53q55 0 100 -15t77 -42.5t49.5 -66.5t17.5 -87t-28.5 -89t-74.5 -88q-28 -30 -46 -51t-28 -40t-13.5 -39t-3.5 -47h153z" />
    <glyph glyph-name="glottalstopstrokereversed" unicode="&#x2a2;" horiz-adv-x="657" 
d="M252 356q0 27 -3.5 47t-13.5 39t-28 40t-46 51q-45 48 -74 88.5t-29 88.5t17.5 87t49.5 66.5t77 42.5t100 15q112 0 213 -53q28 -15 28 -47v-25q0 -27 -19 -35t-40 4q-92 53 -162 53q-51 0 -76 -24t-32 -63q-5 -26 11 -54t61 -66l58 -49q27 -23 44 -42.5t26.5 -42
t13.5 -51.5t5 -70h136q30 0 30 -29v-39q0 -13 -8 -21t-22 -8h-136v-221q0 -20 -12.5 -31.5t-32.5 -11.5h-93q-20 0 -32.5 11.5t-12.5 31.5l2 221h-153q-14 0 -22 8t-8 21v39q0 29 30 29h153z" />
    <glyph glyph-name="dezh" unicode="&#x2a4;" horiz-adv-x="746" 
 />
    <glyph glyph-name="tesh" unicode="&#x2a7;" horiz-adv-x="746" 
 />
    <glyph glyph-name="uni02BC" unicode="&#x2bc;" horiz-adv-x="600" 
 />
    </font>
</defs>
</svg>
